Ссылка на приватное зеркало нашего сайта всего за 1$. Внимание количество ограничено!!!

2 сезон

iTunes

1 сезон

1

iTunes

iTunes

iTunes

1 сезон

RePack

30

ИГРА 18+

pack

ВАЖНО

!!Акция!!

Alien_RageХит недели

RePack

MK11
pack

Забери бонус

RePack

jed

!!Акция!!

Alien_Rage

RePack

fifa19

RePack

Assassins Creed: Odyssey

RePack

NEED FOR SPEED™ PAYBACK

4 сезон

9 сезон

Бесстыжие 9 сезон

Все сериалы

все сериалы на PB.wtf

RePack

FAR CRY 5
  

Земное ядро / The Core (Джон Эмиел) [2003, фантастика, боевик, триллер, приключения, BDRip 720p by msltel] DUB, MVO, AVO pb.wtf

Земное ядро через торрент pb.wtf

Размер: 6 GB | Добавлен: 3 года 4 мес. назад | Торрент скачан:153 раза
Скачать  

31-05-2017 09:23 Земное ядро Скачать торрент  

Название: Земное ядро
Оригинальное название: The Core
Год выпуска: 2003
Страна: США, Великобритания
Жанр: фантастика, боевик, триллер, приключения
Продолжительность: 02:14:57
Перевод: дублированный, профессиональный многоголосый, авторский

Режиссёр: Джон Эмиел

В ролях: Аарон Экхарт, Хилари Суэнк, Делрой Линдо, Стэнли Туччи, ДиДжей Куаллс, Ричард Дженкинс, Чеки Карио, Брюс Гринвуд, Элфри Вудард, Кристофер Шайер

Описание: Геофизик Джош Кийз делает шокирующее открытие: ядро Земли перестало вращаться. Электромагнитное поле нашей планеты разрушается, и скоро Земля погибнет. Кийз в команде первоклассных учёных отправляется в экспедицию к остановившемуся ядру на уникальном термостойком корабле, чтобы взорвать ядерный заряд. Этот взрыв должен будет заставить вращаться злополучное ядро. Путешествие к центру Земли начинается...



Качество: BDRip 720p
Формат: MKV
Видео: MPEG-4 AVC, 4831 Kбит/с, 1280x544
Аудио 1: русский, AC3, 192 kbps, 2 ch, 48 kHz [дублированный]
Аудио 2: русский, AC3, 448 kbps, 6 ch, 48 kHz [профессиональный многоголосый]
Аудио 3: русский, AC3, 448 kbps, 6 ch, 48 kHz [авторский, Юрий Живов]
Аудио 4: английский, AC3, 448 kbps, 6 ch, 48 kHz [оригинал]
Субтитры 1: русские
Субтитры 2: английские (для слабослышащих)
Имеются неименованные главы/чаптеры.
Общее
Уникальный идентификатор : 197244104011107512696998900542123981509 (0x9463D527090D03EF8A8B10DEC61EBAC5)
Полное имя : D:\Video\Земное ядро.2003.BDRip.720p by msltel.mkv
Формат : Matroska
Версия формата : Version 4 / Version 2
Размер файла : 6,00 Гбайт
Продолжительность : 2 ч. 14 м.
Общий поток : 6370 Кбит/сек
Название фильма : Rip by msltel
Дата кодирования : UTC 2017-05-31 06:37:26
Программа кодирования : mkvmerge v8.2.0 ('World of Adventure') 64bit
Библиотека кодирования : libebml v1.3.1 + libmatroska v1.4.2

Видео
Идентификатор : 1
Формат : AVC
Формат/Информация : Advanced Video Codec
Профиль формата : High@L4.1
Параметр CABAC формата : Да
Параметр ReFrames формата : 9 кадров
Идентификатор кодека : V_MPEG4/ISO/AVC
Продолжительность : 2 ч. 14 м.
Битрейт : 4831 Кбит/сек
Ширина : 1280 пикселей
Высота : 544 пикселя
Соотношение сторон : 2,35:1
Режим частоты кадров : Постоянный
Частота кадров : 23,976 (24000/1001) кадра/сек
Цветовое пространство : YUV
Субдискретизация насыщенности : 4:2:0
Битовая глубина : 8 бит
Тип развёртки : Прогрессивная
Бит/(Пиксели*Кадры) : 0.289
Размер потока : 4,55 Гбайт (76%)
Библиотека кодирования : x264 core 146 r2538 121396c
Настройки программы : cabac=1 / ref=9 / deblock=1:-3:-2 / analyse=0x3:0x113 / me=umh / subme=11 / psy=1 / psy_rd=1.00:0.15 / mixed_ref=1 / me_range=32 / chroma_me=1 / trellis=2 / 8x8dct=1 / cqm=0 / deadzone=21,11 / fast_pskip=0 / chroma_qp_offset=-3 / threads=6 / lookahead_threads=1 / sliced_threads=0 / nr=0 / decimate=1 / interlaced=0 / bluray_compat=0 / constrained_intra=0 / bframes=8 / b_pyramid=2 / b_adapt=2 / b_bias=0 / direct=1 / weightb=1 / open_gop=0 / weightp=2 / keyint=230 / keyint_min=23 / scenecut=40 / intra_refresh=0 / rc_lookahead=40 / rc=crf / mbtree=0 / crf=18.2 / qcomp=0.60 / qpmin=0 / qpmax=69 / qpstep=4 / vbv_maxrate=62500 / vbv_bufsize=78125 / crf_max=0.0 / nal_hrd=none / filler=0 / ip_ratio=1.40 / pb_ratio=1.30 / aq=1:1.00
Язык : English
Default : Да
Forced : Нет

Аудио #1
Идентификатор : 2
Формат : AC-3
Формат/Информация : Audio Coding 3
Параметр Endianness формата : Big
Идентификатор кодека : A_AC3
Продолжительность : 2 ч. 14 м.
Вид битрейта : Постоянный
Битрейт : 192 Кбит/сек
Каналы : 2 канала
Расположение каналов : Front: L R
Частота : 48,0 КГц
Частота кадров : 31,250 кадров/сек (1536 spf)
Битовая глубина : 16 бит
Метод сжатия : С потерями
Размер потока : 185 Мбайт (3%)
Заголовок : DUB
Язык : Russian
ServiceKind/String : Complete Main
Default : Да
Forced : Нет

Аудио #2
Идентификатор : 3
Формат : AC-3
Формат/Информация : Audio Coding 3
Параметр Endianness формата : Big
Идентификатор кодека : A_AC3
Продолжительность : 2 ч. 14 м.
Вид битрейта : Постоянный
Битрейт : 448 Кбит/сек
Каналы : 6 каналов
Расположение каналов : Front: L C R, Side: L R, LFE
Частота : 48,0 КГц
Частота кадров : 31,250 кадров/сек (1536 spf)
Битовая глубина : 16 бит
Метод сжатия : С потерями
Размер потока : 432 Мбайт (7%)
Заголовок : MVO
Язык : Russian
ServiceKind/String : Complete Main
Default : Нет
Forced : Нет

Аудио #3
Идентификатор : 4
Формат : AC-3
Формат/Информация : Audio Coding 3
Параметр Endianness формата : Big
Идентификатор кодека : A_AC3
Продолжительность : 2 ч. 14 м.
Вид битрейта : Постоянный
Битрейт : 448 Кбит/сек
Каналы : 6 каналов
Расположение каналов : Front: L C R, Side: L R, LFE
Частота : 48,0 КГц
Частота кадров : 31,250 кадров/сек (1536 spf)
Битовая глубина : 16 бит
Метод сжатия : С потерями
Размер потока : 432 Мбайт (7%)
Заголовок : AVO (Юрий Живов)
Язык : Russian
ServiceKind/String : Complete Main
Default : Нет
Forced : Нет

Аудио #4
Идентификатор : 5
Формат : AC-3
Формат/Информация : Audio Coding 3
Параметр Endianness формата : Big
Идентификатор кодека : A_AC3
Продолжительность : 2 ч. 14 м.
Вид битрейта : Постоянный
Битрейт : 448 Кбит/сек
Каналы : 6 каналов
Расположение каналов : Front: L C R, Side: L R, LFE
Частота : 48,0 КГц
Частота кадров : 31,250 кадров/сек (1536 spf)
Битовая глубина : 16 бит
Метод сжатия : С потерями
Размер потока : 432 Мбайт (7%)
Заголовок : original
Язык : English
ServiceKind/String : Complete Main
Default : Нет
Forced : Нет

Текст #1
Идентификатор : 6
Формат : UTF-8
Идентификатор кодека : S_TEXT/UTF8
Идентификатор кодека/Информация : UTF-8 Plain Text
Продолжительность : 2 ч. 5 м.
Битрейт : 89 бит/сек
ElementCount : 1170
Размер потока : 81,8 Кбайт (0%)
Заголовок : русские
Язык : Russian
Default : Нет
Forced : Нет

Текст #2
Идентификатор : 7
Формат : UTF-8
Идентификатор кодека : S_TEXT/UTF8
Идентификатор кодека/Информация : UTF-8 Plain Text
Продолжительность : 2 ч. 14 м.
Битрейт : 62 бит/сек
ElementCount : 1691
Размер потока : 61,7 Кбайт (0%)
Заголовок : английские (для слабослышащих)
Язык : English
Default : Нет
Forced : Нет

Меню
00:00:00.000 : :Chapter 01
00:07:12.807 : :Chapter 02
00:11:09.001 : :Chapter 03
00:18:15.260 : :Chapter 04
00:27:57.342 : :Chapter 05
00:32:53.971 : :Chapter 06
00:35:58.489 : :Chapter 07
00:40:12.993 : :Chapter 08
00:47:26.760 : :Chapter 09
00:50:08.463 : :Chapter 10
01:01:19.592 : :Chapter 11
01:11:50.055 : :Chapter 12
01:22:25.899 : :Chapter 13
01:29:28.196 : :Chapter 14
01:33:43.033 : :Chapter 15
01:39:00.643 : :Chapter 16
01:44:38.354 : :Chapter 17
01:52:21.109 : :Chapter 18
01:58:07.246 : :Chapter 19
02:03:58.013 : :Chapter 20
02:14:57.506 : :Chapter 21
pb.wtf



Скачать Земное ядро через торрент http://s04.radikal.ru/i177/1705/08/418a96d4a827.jpg Скачать фильм Земное ядро через торрент бесплантно в хорошем качестве Описание: Геофизик Джош Кийз делает шокирующее открытие: ядро Земли перестало вращаться. Электромагнитное поле нашей планеты разрушается, и ... 10 10 4
Info! Золотая раздача, скачанное не засчитывается.
Торрент: Зарегистрирован [2017-05-31 09:23] · скачан: 153 раз
Статус: √ проверено
Размер: 6 GB
Как cкачать? Как скачать Земное ядро через торрент | qTorrent

% Раздел Тема Автор DL S | L
Фильмы [HD 720p, 1080p] (Хороший звук DUB, MVO) [ 16.77 GB ] Земное ядро / The Core [2003 BDRip 1080p by msltel] DUB MVO AVO msltel Скачать
1 | 0

28-11-2019 20:33  

Отключить всю рекламу на сайте

    Дорогой пользователь! Огромная просьба, поблагодарите релизера, оцените раздачу и оставьте свои комментарий, если Вы скачали Земное ядро через торрент бесплатно! Внесите свою лепту в развитие PiratBit!
    Комментировать посты могут только пользователи прошедшие не сложную регистрацию
    Показать сообщения:    

    Земное ядро через торрент
    Скачать бесплатно Земное ядро
    Земное ядро скачать торрент
    Земное ядро смотреть онлайн
    Cкачать фильм Земное ядро бесплатно
    Земное ядро скачать торрент в хорошем качестве
    Земное ядро смотреть онлайн бесплатно в хорошем качестве


    Вы не можете начинать темы
    Вы не можете отвечать на сообщения
    Вы не можете редактировать свои сообщения
    Вы не можете удалять свои сообщения
    Вы не можете голосовать в опросах
    Вы не можете прикреплять файлы к сообщениям
    Вы можете скачивать файлы