Anonymous, доброй ночи, присоединяйтесь к нам в Telegram!, здесь всегда актуальный адрес сайта, оперативная поддержка и многое другое!

>

5.5

iTunes

7.4

iTunes

7.9

iTunes

1

7.7

1 сезон

6.8

iTunes

7.3

1 сезон

13

6.7

1 сезон

8.3

RePack

30

ULTIMATE

pack

9.9

Лицензия

ВАЖНО

ИГРА 18+

pack

7.3

RePack

MK11

7.7

RePack

jed

7.8

RePack

fifa19

8.5

RePack

RDR2

RePack

NEED FOR SPEED™ PAYBACK

4 сезон

9 сезон

Бесстыжие 9 сезон

Все сериалы

все сериалы на PB.wtf

RePack

FAR CRY 5

Anonymous, доброй ночи, мы катастрофически не успеваем собрать деньги на оплату серверов, помогите нам пожалуйста 5,10,15р., для нас важна любая помощь . В качестве благодарности мы отключим Вам всю рекламу на сайте (укажите свой ник в строку Ваше имя)!

×
  
Magnet ссылка

Полицейский с Рублёвки в Бескудниково / Сезон 2 / Серии 1-8 из 8 (Илья Куликов) [2017 г., Комедия, SATRip] pb.wtf

Полицейский с Рублёвки в Бескудниково через торрент pb.wtf

Раздают: 2 [ 39 KB/s ]
Размер: 5.17 GB | Добавлен: 4 года 4 мес. назад | Торрент скачан:4257 раз
Смотреть онлайн Полицейский с Рублёвки в Бескудниково | Скачать    Ребята, помогите собрать деньги на оплату серверов!!!

31-05-2017 16:40 Полицейский с Рублёвки в Бескудниково Скачать торрент  

Полицейский с Рублёвки в Бескудниково
««Закон и порядок со скидкой»»

Год выпуска: 2017

Страна: Россия
Жанр: комедия, криминал
Продолжительность: 8х ~ 00:49:33
Перевод: Не требуется [Русский]
Примечание: Релиз без рекламы
Режиссер: Илья Куликов
В ролях:

Александр Петров (Гриша), Сергей Бурунов (Яковлев), Татьяна Бабенкова (Алёна), София Каштанова (Кристина), Роман Попов (Мухич), Александра Бортич (Ника), Ростислав Гулбис (Олег), Сергей Штатнов (Дима), Александр Дерепко (Саша), Светлана Суханова (Наташа, жена Яковлева), Роман Калькаев (риэлтор), Марина Кондратьева (Светлана)
Описание:
Полицейские получили повышение. Отныне, Гриша Измайлов - начальник оперов, Мухич - руководитель следственной группы, а возглавляет весь отдел подполковник Яковлев. Радость полицейских быстро проходит, когда они узнают, что работать им придется не в сытой Барвихе, а в обычном московском ОМВД района Бескудниково.
Рейтинг:

Качество: SATRip
Формат: AVI
Видео: XviD, 720x368 (1.957), 1649 kbps, 25 fps, 0,249 bpp
Аудио: MP3 / 2.0 / 48 kHz / 192 kbps /
General
Complete name : E:\Politseyskiy.s.Rublevki.S02.2017.SATRip.25Kuzmich\Politseyskiy.s.Rublevki.s02.e01.XviD.SATRip.25Kuzmich.avi
Format : AVI
Format/Info : Audio Video Interleave
File size : 656 MiB
Duration : 49 min
Overall bit rate : 1 852 kb/s
Writing application : VirtualDubMod 1.5.10.3 | www.virtualdub-fr.org || (build 2550/release)
Writing library : VirtualDubMod build 2550/release

Video
ID : 0
Format : MPEG-4 Visual
Format profile : Advanced Simple@L5
Format settings, BVOP : 1
Format settings, QPel : No
Format settings, GMC : No warppoints
Format settings, Matrix : Default (MPEG)
Codec ID : XVID
Codec ID/Hint : XviD
Duration : 49 min
Bit rate : 1 650 kb/s
Width : 720 pixels
Height : 368 pixels
Display aspect ratio : 1.957
Frame rate : 25.000 FPS
Color space : YUV
Chroma subsampling : 4:2:0
Bit depth : 8 bits
Scan type : Progressive
Compression mode : Lossy
Bits/(Pixel*Frame) : 0.249
Stream size : 585 MiB (89%)
Writing library : XviD 1.2.1 (UTC 2008-12-04)

Audio
ID : 1
Format : MPEG Audio
Format version : Version 1
Format profile : Layer 3
Mode : Joint stereo
Mode extension : MS Stereo
Codec ID : 55
Codec ID/Hint : MP3
Duration : 49 min
Bit rate mode : Constant
Bit rate : 192 kb/s
Channel(s) : 2 channels
Sampling rate : 48.0 kHz
Compression mode : Lossy
Stream size : 68.1 MiB (10%)
Alignment : Aligned on interleaves
Interleave, duration : 40 ms (1.00 video frame)
Interleave, preload duration : 504 ms
Writing library : LAME3.99r
Encoding settings : -m j -V 4 -q 0 -lowpass 18.6 -b 192
Внимание! Раздача ведётся путём добавления новых серий; при каждом добавлении создаётся новый торрент.
Чтобы начать докачку новой серии, пользователям необходимо сделать следующее:
1. Остановить скачивание;
2. Удалить старый торрент у себя из клиента (старые серии удалять не надо);
3. Скачать новый торрент и запустить его у себя в клиенте вместо старого, при этом указать клиенту путь в старую папку куда и должно происходить скачивание новых серий. Ваш клиент при этом должен произвести хеширование (проверку) старой папки и будет докачивать только те серии, которых у вас ещё нет. Старые серии при этом не удаляются, а продолжают раздаваться! Eсли вы уже удалили старые серии, то предотвратить повторную закачку старых серий можно, отжав галочку в соответствующих местах при запуске нового торрента.
pb.wtf



Скачать Полицейский с Рублёвки в Бескудниково через торрент http://i1.imageban.ru/out/2017/05/31/230fdc8d3e360373c594c4279f3e6e10.jpg Скачать, смотреть онлайн Полицейский с Рублёвки в Бескудниково бесплантно в хорошем качестве Описание: Полицейские получили повышение. Отныне, Гриша Измайлов - начальник оперов, Мухич - руководитель следственной группы, а ... 9.8 10 74
Info! Золотая раздача, скачанное не засчитывается.
Торрент: Зарегистрирован [2017-06-01 13:17] · скачан: 4 257 раз
Статус: √ проверено
Размер: 5.17 GB
Как cкачать? Как скачать Полицейский с Рублёвки в Бескудниково через торрент | UTorrent

% Раздел Тема Автор DL S | L
TNT serials [ 19.74 GB ] Полицейский с Рублёвки в Бескудниково / 2 сезон / Серии 1-8 серии из 8 [2017 HDTV 1080i] bober100 Скачать
2 | 0
TNT serials [ 10.32 GB ] Полицейский с Рублёвки в Бескудниково / Сезон 2 / Серии 1-8 из 8 [2017 HDTVRip 720p] bober100 Скачать
1 | 0

28-11-2019 20:33  

Отключить всю рекламу на сайте

14-06-2017 13:14 Полицейский с Рублёвки в Бескудниково Скачать торрент  

pb.wtf



    Дорогой пользователь! Огромная просьба, поблагодарите релизера, оцените раздачу и оставьте свои комментарий, если Вы скачали Полицейский с Рублёвки в Бескудниково через торрент бесплатно!
    Комментировать посты могут только пользователи прошедшие не сложную регистрацию
    Показать сообщения:    

    Полицейский с Рублёвки в Бескудниково через торрент
    Скачать бесплатно Полицейский с Рублёвки в Бескудниково
    Полицейский с Рублёвки в Бескудниково скачать торрент
    Полицейский с Рублёвки в Бескудниково смотреть онлайн
    Cкачать фильм Полицейский с Рублёвки в Бескудниково бесплатно
    Полицейский с Рублёвки в Бескудниково скачать торрент в хорошем качестве
    Полицейский с Рублёвки в Бескудниково смотреть онлайн бесплатно в хорошем качестве


    Вы не можете начинать темы
    Вы не можете отвечать на сообщения
    Вы не можете редактировать свои сообщения
    Вы не можете удалять свои сообщения
    Вы не можете голосовать в опросах
    Вы не можете прикреплять файлы к сообщениям
    Вы можете скачивать файлы