Ссылка на приватное зеркало всего за 1$. Внимание количество ограничено!!!

iTunes

iTunes

iTunes

1

iTunes

iTunes

iTunes

iTunes

iTunes

30
pack

$ от Little Big

ВАЖНО

!!Акция!!

Alien_RageХит недели

RePack

Resident Evil 21

ИГРА 18+

pack

RePack

jed

!!Акция!!

Alien_Rage

RePack

fifa19

RePack

Assassins Creed: Odyssey

RePack

NEED FOR SPEED™ PAYBACK

4 сезон

9 сезон

Бесстыжие 9 сезон

Все сериалы

все сериалы на PB.wtf

RePack

FAR CRY 5
  

Гоблин / The Goblin (Майкл Уайатт) [2017 г., Фэнтези, Ужасы, Триллер, WEB-DLRip 1080р, Любительский (двухголосый) (den904 & deadsno)] pb.wtf

Гоблин через торрент pb.wtf

Размер: 1.74 GB | Добавлен: 3 года 1 мес. назад | Торрент скачан:161 раз
Скачать  

31-05-2017 17:13 Гоблин Скачать торрент  

Гоблин / The Goblin
Год выпуска: 2017
Страна: США (Michael & Company Pictures)
Жанр: Фэнтези, Ужасы, Триллер
Продолжительность: 01:06:49
Перевод: Любительский двухголосый (den904 & deadsno)
Субтитры: Русские

Режиссер: Майкл Уайатт

В ролях: Роберт Леви II, Николь Харгров

Описание: Саймон - маленький мальчик, живущий с сумасшедшей матерью, которая считает его исчадием ада. День за днем он вынужден выносить издевательства, голод и постоянные перепады её настроения. Оторванный от реального мира, он несчастен и одинок. Единственные существа, которым он может пожаловаться и которые хоть как-то отвлекают его от безрадостного детства - это деревянная кукла и мышонок в баночке. И вот, однажды, к нему, уже умирающем от голода, приходит неожиданный спаситель...
Рекламы НЕТ !!

Качество: WEB-DLRip 1080р
Формат: MKV
Видео кодек: AVC/H.264
Аудио кодек: AC3
Видео: 1920x960,AVC/H.264, ~3278 Kbps
Аудио#1: AC3, 2 ch, 192 Kbps (русский)
Аудио#2: AC3, 2 ch, 192 Kbps (английский)





Общее
Уникальный идентификатор : 244880823005685288003363398579115445907 (0xB83A54BB520C4EE4B7A2F286933ACE93)
Полное имя : D:\torrent\The Goblin.2017.WEBDL.RR.mkv
Формат : Matroska
Версия формата : Version 4 / Version 2
Размер файла : 1,74 Гбайт
Продолжительность : 1 ч. 6 м.
Общий поток : 3737 Кбит/сек
Дата кодирования : UTC 2017-05-26 12:53:30
Программа кодирования : mkvmerge v9.4.2 ('So High') 64bit
Библиотека кодирования : libebml v1.3.4 + libmatroska v1.4.5

Видео
Идентификатор : 1
Формат : AVC
Формат/Информация : Advanced Video Codec
Профиль формата : High@L4
Параметр CABAC формата : Да
Параметр ReFrames формата : 4 кадра
Идентификатор кодека : V_MPEG4/ISO/AVC
Продолжительность : 1 ч. 6 м.
Битрейт : 3350 Кбит/сек
Ширина : 1920 пикселей
Высота : 960 пикселей
Соотношение сторон : 2,000
Режим частоты кадров : Постоянный
Частота кадров : 23,976 (24000/1001) кадра/сек
Цветовое пространство : YUV
Субдискретизация насыщенности : 4:2:0
Битовая глубина : 8 бит
Тип развёртки : Прогрессивная
Бит/(Пиксели*Кадры) : 0.076
Размер потока : 1,56 Гбайт (90%)
Библиотека кодирования : x264 core 148 r10 b97ae06
Настройки программы : cabac=1 / ref=4 / deblock=1:0:0 / analyse=0x3:0x113 / me=hex / subme=8 / psy=1 / psy_rd=1.00:0.00 / mixed_ref=1 / me_range=16 / chroma_me=1 / trellis=2 / 8x8dct=1 / cqm=0 / deadzone=21,11 / fast_pskip=1 / chroma_qp_offset=-2 / threads=30 / lookahead_threads=5 / sliced_threads=0 / nr=0 / decimate=1 / interlaced=0 / bluray_compat=0 / stitchable=1 / constrained_intra=0 / bframes=3 / b_pyramid=2 / b_adapt=1 / b_bias=0 / direct=3 / weightb=1 / open_gop=0 / weightp=2 / keyint=infinite / keyint_min=23 / scenecut=40 / intra_refresh=0 / rc_lookahead=50 / rc=crf / mbtree=1 / crf=20.0 / qcomp=0.60 / qpmin=5 / qpmax=69 / qpstep=4 / vbv_maxrate=4950 / vbv_bufsize=13500 / crf_max=0.0 / nal_hrd=none / filler=0 / ip_ratio=1.40 / aq=1:1.00
Default : Да
Forced : Нет
Цветовой диапазон : Limited
Основные цвета : BT.709
Характеристики трансфера : BT.709
Коэффициенты матрицы : BT.709

Аудио #1
Идентификатор : 2
Формат : AC-3
Формат/Информация : Audio Coding 3
Расширение режима : CM (complete main)
Параметр Endianness формата : Big
Идентификатор кодека : A_AC3
Продолжительность : 1 ч. 6 м.
Вид битрейта : Постоянный
Битрейт : 192 Кбит/сек
Каналы : 2 канала
Расположение каналов : Front: L R
Частота : 48,0 КГц
Частота кадров : 31,250 кадров/сек (1536 spf)
Метод сжатия : С потерями
Размер потока : 91,8 Мбайт (5%)
Язык : Russian
Default : Да
Forced : Да

Аудио #2
Идентификатор : 3
Формат : AC-3
Формат/Информация : Audio Coding 3
Расширение режима : CM (complete main)
Параметр Endianness формата : Big
Идентификатор кодека : A_AC3
Продолжительность : 1 ч. 6 м.
Вид битрейта : Постоянный
Битрейт : 192 Кбит/сек
Каналы : 2 канала
Расположение каналов : Front: L R
Частота : 48,0 КГц
Частота кадров : 31,250 кадров/сек (1536 spf)
Метод сжатия : С потерями
Размер потока : 91,8 Мбайт (5%)
Язык : English
Default : Нет
Forced : Нет

Текст
Идентификатор : 4
Формат : UTF-8
Идентификатор кодека : S_TEXT/UTF8
Идентификатор кодека/Информация : UTF-8 Plain Text
Продолжительность : 1 ч. 2 м.
Битрейт : 61 бит/сек
Count of elements : 504
Размер потока : 28,2 Кбайт (0%)
Язык : Russian
Default : Да
Forced : Нет

pb.wtf



Скачать Гоблин через торрент http://pic1.kartinco.top/images/11/s913y.jpg Скачать фильм Гоблин через торрент бесплантно в хорошем качестве Описание: Саймон - маленький мальчик, живущий с сумасшедшей матерью, которая считает его исчадием ада. День за днем он вынужден выносить ... 8.5 10 6
Торрент: Зарегистрирован [2017-05-31 17:13] · скачан: 161 раз
Статус: T временная
Размер: 1.74 GB
Как cкачать? Как скачать Гоблин через торрент | qTorrent

% Раздел Тема Автор DL S | L
Фильмы с авторской озвучкой [ 1.48 GB ] Пол: Секретный материальчик / Пол / Paul [2011 WEBRip] [Театральная версия / Theatrical Cut] [Open Matte] [AVO] killermax2013 Скачать
5 | 0
Мультфильмы / Cartoons [ 1.27 GB ] Невеста Гоблина / Bride of the GOBLIN [2014Big tits Blowjob Fantasy Restraint Oral Cumshot Forced OralDLversion 720p] DJASFUL Скачать
1 | 1
Сборники на DVD и Сиквелы [DVDrip, WEB-DLRip, HDrip, BDRip] [ 4.1 GB ] Властелин колец. Трилогия / The Lord Of The Rings. Trilogy [2001-2003г фэнтази DVDRip] M@RCU$ Скачать
2 | 0


Последний раз редактировалось: jump88 (2017-05-31 18:24), всего редактировалось 1 раз

28-11-2019 20:33  

Отключить всю рекламу на сайте

31-05-2017 18:14 Гоблин Скачать торрент  

смотребильно хоть?pb.wtf



31-05-2017 20:12 Гоблин Скачать торрент  

Судя по третьему скрину то.....pb.wtf



01-06-2017 00:54 Гоблин Скачать торрент  

Фильм самопал что ли? Даже на кинопоиске нету его...pb.wtf



01-06-2017 08:09 Гоблин Скачать торрент  

zelya777 писал(а):

Судя по третьему скрину то.....

ахахахаххаpb.wtf



01-06-2017 19:11 Гоблин Скачать торрент  

"И вот, однажды, к нему, уже умирающем от голода, приходит неожиданный спаситель..." Рекламы НЕТ.

Хороший спаситель "рекламы нет". Очень бы не помешало на нашем ТВ pb.wtf



    Дорогой пользователь! Огромная просьба, поблагодарите релизера, оцените раздачу и оставьте свои комментарий, если Вы скачали Гоблин через торрент бесплатно! Внесите свою лепту в развитие PiratBit!
    Комментировать посты могут только пользователи прошедшие не сложную регистрацию
    Показать сообщения:    

    Гоблин через торрент
    Скачать бесплатно Гоблин
    Гоблин скачать торрент
    Гоблин смотреть онлайн
    Cкачать фильм Гоблин бесплатно
    Гоблин скачать торрент в хорошем качестве
    Гоблин смотреть онлайн бесплатно в хорошем качестве


    Вы не можете начинать темы
    Вы не можете отвечать на сообщения
    Вы не можете редактировать свои сообщения
    Вы не можете удалять свои сообщения
    Вы не можете голосовать в опросах
    Вы не можете прикреплять файлы к сообщениям
    Вы можете скачивать файлы