Ссылка на приватное зеркало всего за 1$. Внимание количество ограничено!!!

iTunes

iTunes

iTunes

1

iTunes

iTunes

iTunes

iTunes

iTunes

30
pack

$ от Little Big

ВАЖНО

!!Акция!!

Alien_RageХит недели

RePack

Resident Evil 21

ИГРА 18+

pack

RePack

jed

!!Акция!!

Alien_Rage

RePack

fifa19

RePack

Assassins Creed: Odyssey

RePack

NEED FOR SPEED™ PAYBACK

4 сезон

9 сезон

Бесстыжие 9 сезон

Все сериалы

все сериалы на PB.wtf

RePack

FAR CRY 5
  

Лего Фильм: Бэтмен / The LEGO Batman Movie (Крис МакКей) [2017, мультфильм, фэнтези, боевик, BDRip 720p] Дубляж - [Лицензия / iTunes] от R.G.Resident pb.wtf

Лего Фильм: Бэтмен через торрент pb.wtf

Размер: 4.06 GB | Добавлен: 3 года 1 мес. назад | Торрент скачан:360 раз
Скачать  

01-06-2017 07:15 Лего Фильм: Бэтмен Скачать торрент  

Лего Фильм: Бэтмен / The LEGO Batman Movie
««Всегда будь собой. Если только ты не Бэтмен»»

Год выпуска: 2017
Страна: США, Дания
Жанр: мультфильм, фэнтези, боевик, комедия, приключения, семейный
Продолжительность: 01:44:30
Перевод: Дубляж - [Лицензия / iTunes]
Субтитры: русские (forced), русские (full), английские (full), английские (SDH)
Режиссер: Крис МакКей
В ролях:

Уилл Арнетт (Batman / Bruce Wayne, озвучка), Майкл Сера (Robin / Dick Grayson, озвучка), Розарио Доусон (Batgirl / Barbara Gordon, озвучка), Рэйф Файнс (Alfred Pennyworth, озвучка), Сири ('Puter, озвучка), Зак Галифианакис (Joker, озвучка), Дженни Слейт (Harley Quinn, озвучка), Джейсон Манцукас (Scarecrow, озвучка), Конан О’Брайен (The Riddler, озвучка), Даг Бенсон (Bane, озвучка), Билли Ди Уильямс (Two-Face, озвучка), Зои Кравиц (Catwoman, озвучка)
Описание:
Готэму вновь грозит опасность. И на его стражу становится единственный герой, которого заслуживает этот город - Бэтмен, альтер-эго миллиардера Брюса Уэйна, живущего в своем огромном родовом поместье вместе с дворецким Альфредом. Но в этот раз супергерой вынужден взять в напарники парня по имени Дик Грейсон, которого он, сам того не помня, усыновил на одном из светских приемов. Новоиспеченный Робин составит Бэтмену компанию в борьбе с его заклятым врагом Джокером, сбежавшим из психиатрической больницы «Аркхем», а также Харли Куинн, готовой на самые сумасшедшие злодеяния, чтобы оставить в дураках всю «Лигу Справедливости», включая Бэтгерл.
Мировая премьера: 1 февраля 2017

MPAA: PG - Рекомендуется присутствие родителей
Качество: BDRip 720p Rip by
Формат: MKV
Видео: AVC, 1280x534 (2.40:1), 4536 kbps, 23,976 fps, 0,277 bpp
Аудио №1: русский / AC3 / 5.1 / 48 kHz / 384 kbps /
Аудио №2: английский / AC3 / 5.1 / 48 kHz / 640 kbps /
x264 [info]: frame I:1515 Avg QP:13.58 size:132735
x264 [info]: frame P:38598 Avg QP:16.87 size: 47403
x264 [info]: frame B:110219 Avg QP:17.42 size: 13809

General
Unique ID : 223195700969983655688690921672399434184 (0xA7E9EDAB56817936B9B204C48A1CB1C8)
Complete name : D:\download\The.LEGO.Batman.Movie.2017.BDRip 720р by schultz R.G.Resident.mkv
Format : Matroska
Format version : Version 4 / Version 2
File size : 4.06 GiB
Duration : 1 h 44 min
Overall bit rate : 5 560 kb/s
Encoded date : UTC 2017-06-01 07:00:11
Writing application : mkvmerge v8.9.0 ('Father Daughter') 64bit
Writing library : libebml v1.3.3 + libmatroska v1.4.4

Video
ID : 1
Format : AVC
Format/Info : Advanced Video Codec
Format profile : High@L4.1
Format settings, CABAC : Yes
Format settings, ReFrames : 11 frames
Codec ID : V_MPEG4/ISO/AVC
Duration : 1 h 44 min
Bit rate : 4 536 kb/s
Width : 1 280 pixels
Height : 534 pixels
Display aspect ratio : 2.40:1
Frame rate mode : Constant
Frame rate : 23.976 (23976/1000) FPS
Color space : YUV
Chroma subsampling : 4:2:0
Bit depth : 8 bits
Scan type : Progressive
Bits/(Pixel*Frame) : 0.277
Stream size : 3.31 GiB (82%)
Writing library : x264 core 146 r2538 121396c
Encoding settings : cabac=1 / ref=11 / deblock=1:-3:-3 / analyse=0x3:0x113 / me=umh / subme=11 / psy=1 / psy_rd=1.00:0.00 / mixed_ref=1 / me_range=48 / chroma_me=1 / trellis=2 / 8x8dct=1 / cqm=0 / deadzone=21,11 / fast_pskip=0 / chroma_qp_offset=-2 / threads=12 / lookahead_threads=3 / sliced_threads=0 / nr=0 / decimate=0 / interlaced=0 / bluray_compat=0 / constrained_intra=0 / bframes=10 / b_pyramid=2 / b_adapt=2 / b_bias=0 / direct=3 / weightb=1 / open_gop=0 / weightp=2 / keyint=240 / keyint_min=23 / scenecut=40 / intra_refresh=0 / rc_lookahead=40 / rc=2pass / mbtree=0 / bitrate=4536 / ratetol=1.0 / qcomp=0.60 / qpmin=0 / qpmax=69 / qpstep=4 / cplxblur=20.0 / qblur=0.5 / vbv_maxrate=50000 / vbv_bufsize=62500 / nal_hrd=none / filler=0 / ip_ratio=1.40 / pb_ratio=1.30 / aq=1:1.00
Language : English
Default : Yes
Forced : No

Audio #1
ID : 2
Format : AC-3
Format/Info : Audio Coding 3
Mode extension : CM (complete main)
Format settings, Endianness : Big
Codec ID : A_AC3
Duration : 1 h 44 min
Bit rate mode : Constant
Bit rate : 384 kb/s
Channel(s) : 6 channels
Channel positions : Front: L C R, Side: L R, LFE
Sampling rate : 48.0 kHz
Frame rate : 31.250 FPS (1536 spf)
Compression mode : Lossy
Stream size : 287 MiB (7%)
Language : Russian
Default : Yes
Forced : No

Audio #2
ID : 3
Format : AC-3
Format/Info : Audio Coding 3
Mode extension : CM (complete main)
Format settings, Endianness : Big
Codec ID : A_AC3
Duration : 1 h 44 min
Bit rate mode : Constant
Bit rate : 640 kb/s
Channel(s) : 6 channels
Channel positions : Front: L C R, Side: L R, LFE
Sampling rate : 48.0 kHz
Frame rate : 31.250 FPS (1536 spf)
Compression mode : Lossy
Stream size : 478 MiB (12%)
Language : English
Default : No
Forced : No

Text #1
ID : 4
Format : UTF-8
Codec ID : S_TEXT/UTF8
Codec ID/Info : UTF-8 Plain Text
Duration : 1 h 36 min
Bit rate : 4 b/s
Count of elements : 74
Stream size : 2.91 KiB (0%)
Title : forced
Language : Russian
Default : Yes
Forced : No

Text #2
ID : 5
Format : UTF-8
Codec ID : S_TEXT/UTF8
Codec ID/Info : UTF-8 Plain Text
Duration : 1 h 44 min
Bit rate : 130 b/s
Count of elements : 2178
Stream size : 99.7 KiB (0%)
Title : full
Language : Russian
Default : No
Forced : No

Text #3
ID : 6
Format : UTF-8
Codec ID : S_TEXT/UTF8
Codec ID/Info : UTF-8 Plain Text
Duration : 1 h 44 min
Bit rate : 87 b/s
Count of elements : 2167
Stream size : 66.6 KiB (0%)
Title : full
Language : English
Default : No
Forced : No

Text #4
ID : 7
Format : UTF-8
Codec ID : S_TEXT/UTF8
Codec ID/Info : UTF-8 Plain Text
Duration : 1 h 44 min
Bit rate : 95 b/s
Count of elements : 2341
Stream size : 73.0 KiB (0%)
Title : SDH
Language : English
Default : No
Forced : No

Menu
00:00:00.000 : en:00:00:00.000
00:12:56.526 : en:00:12:56.526
00:22:57.793 : en:00:22:57.793
00:32:32.701 : en:00:32:32.701
00:40:58.539 : en:00:40:58.539
00:50:12.593 : en:00:50:12.593
01:00:26.456 : en:01:00:26.456
01:10:59.505 : en:01:10:59.505
01:19:30.975 : en:01:19:30.975
01:27:18.400 : en:01:27:18.400
01:36:27.156 : en:01:36:27.156

pb.wtf



Скачать Лего Фильм: Бэтмен через торрент http://i77.fastpic.ru/big/2016/0417/a7/808a646271c761f7c7d87df3d366b3a7.png Скачать фильм Лего Фильм: Бэтмен через торрент бесплантно в хорошем качестве Описание: Готэму вновь грозит опасность. И на его стражу становится единственный герой, которого заслуживает этот город - Бэтмен, ... 10 10 9
Info! Золотая раздача, скачанное не засчитывается.
Торрент: Зарегистрирован [2017-06-01 07:15] · скачан: 360 раз
Статус: √ проверено
Размер: 4.06 GB
Как cкачать? Как скачать Лего Фильм: Бэтмен через торрент | qTorrent

% Раздел Тема Автор DL S | L
R.G.Resident - Мультфильмы, Видео [ 2.32 GB ] Лего Фильм: Бэтмен / The LEGO Batman Movie [2017 мультфильм BDRip-AVC] - schultz Скачать
1 | 0

28-11-2019 20:33  

Отключить всю рекламу на сайте

    Дорогой пользователь! Огромная просьба, поблагодарите релизера, оцените раздачу и оставьте свои комментарий, если Вы скачали Лего Фильм: Бэтмен через торрент бесплатно! Внесите свою лепту в развитие PiratBit!
    Комментировать посты могут только пользователи прошедшие не сложную регистрацию
    Показать сообщения:    

    Лего Фильм: Бэтмен через торрент
    Скачать бесплатно Лего Фильм: Бэтмен
    Лего Фильм: Бэтмен скачать торрент
    Лего Фильм: Бэтмен смотреть онлайн
    Cкачать фильм Лего Фильм: Бэтмен бесплатно
    Лего Фильм: Бэтмен скачать торрент в хорошем качестве
    Лего Фильм: Бэтмен смотреть онлайн бесплатно в хорошем качестве


    Вы не можете начинать темы
    Вы не можете отвечать на сообщения
    Вы не можете редактировать свои сообщения
    Вы не можете удалять свои сообщения
    Вы не можете голосовать в опросах
    Вы не можете прикреплять файлы к сообщениям
    Вы можете скачивать файлы