Ссылка на приватное зеркало всего за 1$. Внимание количество ограничено!!!

iTunes

iTunes

iTunes

1

iTunes

iTunes

iTunes

iTunes

iTunes

30
pack

$ от Little Big

ВАЖНО

!!Акция!!

Alien_RageХит недели

RePack

Resident Evil 21

ИГРА 18+

pack

RePack

jed

!!Акция!!

Alien_Rage

RePack

fifa19

RePack

Assassins Creed: Odyssey

RePack

NEED FOR SPEED™ PAYBACK

4 сезон

9 сезон

Бесстыжие 9 сезон

Все сериалы

все сериалы на PB.wtf

RePack

FAR CRY 5
  

Неприятности с обезьянкой / Monkey Trouble (Франко Амурри ) [1994, комедия, приключения, семейный, WEB-DL 720p] 2xMVO + 3xAVO pb.wtf

Неприятности с обезьянкой через торрент pb.wtf

Размер: 3.32 GB | Добавлен: 3 года 1 мес. назад | Торрент скачан:63 раза
Скачать  

01-06-2017 09:16 Неприятности с обезьянкой Скачать торрент  

Неприятности с обезьянкой / Monkey Trouble

Год выпуска: 1994
Страна: Япония, США
Жанр: комедия, приключения, семейный

Продолжительность: 01:36:14
Перевод: Профессиональный (многоголосый); Авторский (одноголосый)
Субтитры: английские,
Режиссер: Франко Амурри
В ролях: Финстер (Dodger), Тора Бёрч (Eva), Харви Кейтель (Azro), Мими Роджерс (Amy), Кристофер МакДональд (Tom), Адриан Джонсон (Jack), Джулиан Джонсон (Jack), Кевин Сканнелл (Peter), Элисон Эллиотт (Tessa), Роберт Миранда (Drake), Виктор Арго (Charlie), Реми Райан (Katie)
Описание:
Мелкий мошенник Азро выдрессировал мартышку воровать деньги и ценности. От него уходит жена, и, напившись, Азро избивает мартышку. Мартышка убегает к девятилетней девочке Еве, квартиру которой она ограбила.
Рейтинг:

MPAA: PG - Рекомендуется присутствие родителей
Качество: WEB-DL 720p
Формат: MKV
Видео: AVC, 1280x720 (16:9), 4142 kbps, 23,976 fps, 0,187 bpp
Аудио №1: русский / AC3 / 2.0 / 48 kHz / 128 kbps / |MVO ОРТ|
Аудио №2: русский / AC3 / 2.0 / 48 kHz / 128 kbps / |MVO|
Аудио №3: русский / AC3 / 2.0 / 48 kHz / 128 kbps / |AVO Гаврилов|
Аудио №4: русский / AC3 / 2.0 / 48 kHz / 128 kbps / |AVO Горчаков|
Аудио №5: русский / AC3 / 2.0 / 48 kHz / 128 kbps / |AVO Санаев|
Аудио №6: английский / AAC LC / 2.0 / 48 kHz / 158 kbps /
Навигация по главам: есть

General
Unique ID : 175438506812515262624309915758057412923 (0x83FC3A34B744E4C9AD70FC708BCED93B)
Complete name : D:\Proba\Monkey.Trouble.1994.720p.WEB-DL.AAC2.0.H264-FGT\Monkey.Trouble.1994.720p.WEB-DL.mkv
Format : Matroska
Format version : Version 4 / Version 2
File size : 3.32 GiB
Duration : 1 h 36 min
Overall bit rate : 4 944 kb/s
Movie name : Monkey.Trouble.1994.720p.WEB-DL.AAC2.0.H264-FGT
Encoded date : UTC 2017-06-01 06:38:32
Writing application : mkvmerge v12.0.0 ('Trust / Lust') 64bit
Writing library : libebml v1.3.4 + libmatroska v1.4.5
Cover : Yes
Attachments : cover_land.jpg / small_cover.jpg / small_cover_land.jpg / cover.jpg

Video
ID : 1
Format : AVC
Format/Info : Advanced Video Codec
Format profile : High@L3.1
Format settings, CABAC : No
Format settings, ReFrames : 2 frames
Codec ID : V_MPEG4/ISO/AVC
Duration : 1 h 36 min
Bit rate : 4 143 kb/s
Width : 1 280 pixels
Height : 720 pixels
Display aspect ratio : 16:9
Frame rate mode : Constant
Frame rate : 23.976 (23976/1000) FPS
Color space : YUV
Chroma subsampling : 4:2:0
Bit depth : 8 bits
Scan type : Progressive
Bits/(Pixel*Frame) : 0.187
Stream size : 2.79 GiB (84%)
Title : Monkey.Trouble.1994.720p.WEB-DL.AAC2.0.H264-FGT
Language : English
Default : Yes
Forced : No
Color range : Limited
Color primaries : BT.709
Transfer characteristics : BT.709
Matrix coefficients : BT.709

Audio #1
ID : 2
Format : AC-3
Format/Info : Audio Coding 3
Mode extension : CM (complete main)
Format settings, Endianness : Big
Codec ID : A_AC3
Duration : 1 h 36 min
Bit rate mode : Constant
Bit rate : 128 kb/s
Channel(s) : 2 channels
Channel positions : Front: L R
Sampling rate : 48.0 kHz
Frame rate : 31.250 FPS (1536 spf)
Compression mode : Lossy
Delay relative to video : 200 ms
Stream size : 88.0 MiB (3%)
Title : ОРТ
Language : Russian
Default : Yes
Forced : No

Audio #2
ID : 3
Format : AC-3
Format/Info : Audio Coding 3
Mode extension : CM (complete main)
Format settings, Endianness : Big
Codec ID : A_AC3
Duration : 1 h 36 min
Bit rate mode : Constant
Bit rate : 128 kb/s
Channel(s) : 2 channels
Channel positions : Front: L R
Sampling rate : 48.0 kHz
Frame rate : 31.250 FPS (1536 spf)
Compression mode : Lossy
Delay relative to video : 200 ms
Stream size : 88.0 MiB (3%)
Title : МVО
Language : Russian
Default : No
Forced : No

Audio #3
ID : 4
Format : AC-3
Format/Info : Audio Coding 3
Mode extension : CM (complete main)
Format settings, Endianness : Big
Codec ID : A_AC3
Duration : 1 h 36 min
Bit rate mode : Constant
Bit rate : 128 kb/s
Channel(s) : 2 channels
Channel positions : Front: L R
Sampling rate : 48.0 kHz
Frame rate : 31.250 FPS (1536 spf)
Compression mode : Lossy
Delay relative to video : 200 ms
Stream size : 88.0 MiB (3%)
Title : Гаврилов
Language : Russian
Default : No
Forced : No

Audio #4
ID : 5
Format : AC-3
Format/Info : Audio Coding 3
Mode extension : CM (complete main)
Format settings, Endianness : Big
Codec ID : A_AC3
Duration : 1 h 36 min
Bit rate mode : Constant
Bit rate : 128 kb/s
Channel(s) : 2 channels
Channel positions : Front: L R
Sampling rate : 48.0 kHz
Frame rate : 31.250 FPS (1536 spf)
Compression mode : Lossy
Delay relative to video : 200 ms
Stream size : 87.9 MiB (3%)
Title : Горчаков
Language : Russian
Default : No
Forced : No

Audio #5
ID : 6
Format : AC-3
Format/Info : Audio Coding 3
Mode extension : CM (complete main)
Format settings, Endianness : Big
Codec ID : A_AC3
Duration : 1 h 36 min
Bit rate mode : Constant
Bit rate : 128 kb/s
Channel(s) : 2 channels
Channel positions : Front: L R
Sampling rate : 48.0 kHz
Frame rate : 31.250 FPS (1536 spf)
Compression mode : Lossy
Delay relative to video : 200 ms
Stream size : 88.0 MiB (3%)
Title : Санаев
Language : Russian
Default : No
Forced : No

Audio #6
ID : 7
Format : AAC
Format/Info : Advanced Audio Codec
Format profile : LC
Codec ID : A_AAC
Duration : 1 h 36 min
Bit rate : 159 kb/s
Channel(s) : 2 channels
Channel positions : Front: L R
Sampling rate : 48.0 kHz
Frame rate : 46.875 FPS (1024 spf)
Compression mode : Lossy
Stream size : 109 MiB (3%)
Title : Monkey.Trouble.1994.720p.WEB-DL.AAC2.0.H264-FGT
Language : English
Default : No
Forced : No

Text
ID : 8
Format : UTF-8
Codec ID : S_TEXT/UTF8
Codec ID/Info : UTF-8 Plain Text
Duration : 1 h 32 min
Bit rate : 55 b/s
Count of elements : 1539
Stream size : 37.7 KiB (0%)
Language : English
Default : Yes
Forced : No

Menu
00:00:00.000 : en:Chapter 1
00:10:55.000 : en:Chapter 2
00:20:19.000 : en:Chapter 3
00:30:28.000 : en:Chapter 4
00:40:20.000 : en:Chapter 5
00:51:26.000 : en:Chapter 6
01:00:53.000 : en:Chapter 7
01:10:08.000 : en:Chapter 8
01:20:02.000 : en:Chapter 9
01:30:16.000 : en:Chapter 10
pb.wtf



Скачать Неприятности с обезьянкой через торрент http://i2.imageban.ru/out/2017/06/01/1cf07c146a61bb86c20b12375fa7ebcd.jpg Скачать фильм Неприятности с обезьянкой через торрент бесплантно в хорошем качестве Описание: Мелкий мошенник Азро выдрессировал мартышку воровать деньги и ценности. От него уходит жена, и, напившись, Азро избивает ... 10 10 1
Торрент: Зарегистрирован [2017-06-01 09:16] · скачан: 63 раз
Статус: √ проверено
Размер: 3.32 GB
Как cкачать? Как скачать Неприятности с обезьянкой через торрент | qTorrent

28-11-2019 20:33  

Отключить всю рекламу на сайте

    Дорогой пользователь! Огромная просьба, поблагодарите релизера, оцените раздачу и оставьте свои комментарий, если Вы скачали Неприятности с обезьянкой через торрент бесплатно! Внесите свою лепту в развитие PiratBit!
    Комментировать посты могут только пользователи прошедшие не сложную регистрацию
    Показать сообщения:    

    Неприятности с обезьянкой через торрент
    Скачать бесплатно Неприятности с обезьянкой
    Неприятности с обезьянкой скачать торрент
    Неприятности с обезьянкой смотреть онлайн
    Cкачать фильм Неприятности с обезьянкой бесплатно
    Неприятности с обезьянкой скачать торрент в хорошем качестве
    Неприятности с обезьянкой смотреть онлайн бесплатно в хорошем качестве


    Вы не можете начинать темы
    Вы не можете отвечать на сообщения
    Вы не можете редактировать свои сообщения
    Вы не можете удалять свои сообщения
    Вы не можете голосовать в опросах
    Вы не можете прикреплять файлы к сообщениям
    Вы можете скачивать файлы