2 сезон

iTunes

MVO

1

2 сезон

iTunes

iTunes

1 сезон

RePack

30

Ultimate

ВАЖНО

ИГРА 18+

pack

RePack

MK11
pack

Легкие деньги

RePack

jed

RePack

fifa19

RePack

RDR2

RePack

NEED FOR SPEED™ PAYBACK

4 сезон

9 сезон

Бесстыжие 9 сезон

Все сериалы

все сериалы на PB.wtf

RePack

FAR CRY 5

Anonymous, доброе утро, мы не успеваем собрать деньги на оплату серверов за декабрь и январь, помогите нам пожалуйста в это трудное время. В качестве благодарности мы отключим Вам всю рекламу на сайте (укажите свой ник в строку Ваше имя)!

×
  
Magnet ссылка

Лекарство от здоровья / A Cure for Wellness (Гор Вербински) [2016, ужасы, фантастика, фэнтези, BDRip от R.G.Resident] Дубляж [Лицензия Blu-ray EUR] pb.wtf

Лекарство от здоровья через торрент pb.wtf

Раздают: 1 [ 0 KB/s ]
Размер: 2.19 GB | Добавлен: 3 года 7 мес. назад | Торрент скачан:1662 раза
Скачать  

01-06-2017 09:24 Лекарство от здоровья Скачать торрент  

Лекарство от здоровья / A Cure for Wellness

Год выпуска: 2016
Страна: Германия, США
Жанр: ужасы, фантастика, фэнтези, триллер, драма, детектив

Продолжительность: 02:26:33
Перевод: Дубляж [Лицензия Blu-ray EUR]
Субтитры: Русские (форс., вшитые), русские (внешние, полные)
Режиссер: Гор Вербински
В ролях:

Дэйн ДеХаан (Lockhart), Джейсон Айзекс (Volmer), Миа Гот (Hannah), Иво Нанди (Enrico), Адриан Шиллер (Deputy Director), Селия Имри (Victoria Watkins), Гарри Гронер (Pembroke), Томас Норстрем (Frank Hill), Ашок Манданна (Ron Nair), Магнус Креппер (Pieter The Vet), Питер Бенедикт (Constable), Михаэль Мендль (Bartender)
Описание:
Молодой амбициозный сотрудник отправляется в затерянный в швейцарских Альпах оздоровительный центр, чтобы вернуть оттуда руководителя своей компании. Но по прибытии он понимает, что чудодейственные процедуры спа-салона вовсе не те, чем кажутся. В то время как парень начинает распутывать страшные тайны этого места, его здравый ум проходит настоящую проверку на прочность. Похоже, теперь он страдает той же странной болезнью, по причине которой здесь остаются другие гости центра, желающие получить свою дозу лекарства.
Рейтинг:

MPAA: R - Лицам до 17 лет обязательно присутствие взрослого
Качество: BDRip
Формат: AVI
Видео: XviD, 720x400 (16:9), 1674 kbps, 23,976 fps, 0,243 bpp
Аудио: AC3 / 5.1 / 48 kHz / 448 kbps /

Общее
Полное имя : E:\A.Cure.for.Wellness.2016.Dub.BDRip.R.G.Resident\A.Cure.for.Wellness.2016.Dub.BDRip.R.G.Resident.avi
Формат : AVI
Формат/Информация : Audio Video Interleave
Профиль формата : OpenDML
Размер файла : 2,19 Гбайт
Продолжительность : 2 ч. 26 м.
Общий поток : 2134 Кбит/сек
Программа кодирования : VirtualDubModRus 1.5.10.2 (build 2542/release)
Библиотека кодирования : VirtualDubMod build 2542/release

Видео
Идентификатор : 0
Формат : MPEG-4 Visual
Профиль формата : Advanced Simple@L5
Параметр BVOP формата : 1
Параметр QPel формата : Нет
Параметр GMC формата : Без точки перехода
Параметр матрицы формата : Выборочная
Идентификатор кодека : XVID
Идентификатор кодека/Подсказка : XviD
Продолжительность : 2 ч. 26 м.
Битрейт : 1674 Кбит/сек
Ширина : 720 пикселей
Высота : 400 пикселей
Соотношение сторон : 16:9
Частота кадров : 23,976 (24000/1001) кадра/сек
Цветовое пространство : YUV
Субдискретизация насыщенности : 4:2:0
Битовая глубина : 8 бит
Тип развёртки : Прогрессивная
Метод сжатия : С потерями
Бит/(Пиксели*Кадры) : 0.243
Размер потока : 1,71 Гбайт (78%)
Библиотека кодирования : XviD 73

Аудио
Идентификатор : 1
Формат : AC-3
Формат/Информация : Audio Coding 3
Параметр Endianness формата : Big
Идентификатор кодека : 2000
Продолжительность : 2 ч. 26 м.
Вид битрейта : Постоянный
Битрейт : 448 Кбит/сек
Каналы : 6 каналов
Расположение каналов : Front: L C R, Side: L R, LFE
Частота : 48,0 КГц
Частота кадров : 31,250 кадров/сек (1536 spf)
Битовая глубина : 16 бит
Метод сжатия : С потерями
Размер потока : 470 Мбайт (21%)
Выравнивание : Разделение по промежуткам
Продолжительность промежутка : 42 мс. (1,00 видеокадр)
Время предзагрузки промежутка : 500 мс.
ServiceKind/String : Complete Main
pb.wtf



Скачать Лекарство от здоровья через торрент http://i77.fastpic.ru/big/2016/0417/a7/808a646271c761f7c7d87df3d366b3a7.png Скачать фильм Лекарство от здоровья через торрент бесплантно в хорошем качестве Описание: Молодой амбициозный сотрудник отправляется в затерянный в швейцарских Альпах оздоровительный центр, чтобы вернуть оттуда ... 9.6 10 35
× Info от релизера! Торрент перезалит, звук - Дубляж (Лицензия Blu-ray EUR)
Info! Золотая раздача, скачанное не засчитывается.
Торрент: Зарегистрирован [2017-06-08 09:57] · скачан: 1 662 раз
Статус: √ проверено
Размер: 2.19 GB
Как cкачать? Как скачать Лекарство от здоровья через торрент | UTorrent

% Раздел Тема Автор DL S | L
Фильмы (Blu-ray, BD-Remux, HDDVD) [ 30.26 GB ] Лекарство от здоровья / A Cure for Wellness [2016 BD Remux 1080p] DUB [] bober100 Скачать
1 | 0
R.G. Resident & PiratVoice - Фильмы, Видео [ 7.46 GB ] Лекарство от здоровья / A Cure for Wellness [2016 BDRip 720p] - [] - R.G.Resident schultz Скачать
1 | 0
Фильмы без перевода [ 29.61 GB ] Лекарство от здоровья / A Cure for Wellness [2017 BD Remux] [Оригинал-ENG] smaster Скачать
1 | 0
Фильмы 2016 [DVDrip, WEB-DLRip, HDrip] (DUB, MVO) [ 2.18 GB ] Лекарство от здоровья / A Cure for Wellness [2016 BDRip] - [] Twi7ter Скачать
1 | 0
Фильмы 2016 [DVDrip, WEB-DLRip, HDrip] (DUB, MVO) [ 1.46 GB ] Лекарство от здоровья / A Cure for Wellness [2016 BDRip] - [] Twi7ter Скачать
1 | 0
R.G. Resident & PiratVoice - Фильмы, Видео [ 3.14 GB ] Лекарство от здоровья / A Cure for Wellness [2016 BDRip-AVC ] DUB [ Blu-ray EUR] -Lexx- Скачать
1 | 0
Фильмы 2016 [DVDrip, WEB-DLRip, HDrip] (DUB, MVO) [ 2.87 GB ] Лекарство от здоровья / A Cure for Wellness [2016 BDRip-AVC] - ExKinoRay Enigma2010 Скачать
1 | 0


Последний раз редактировалось: -Lexx- (2017-06-08 09:58), всего редактировалось 4 раз(а)

28-11-2019 20:33  

Отключить всю рекламу на сайте

    Дорогой пользователь! Огромная просьба, поблагодарите релизера, оцените раздачу и оставьте свои комментарий, если Вы скачали Лекарство от здоровья через торрент бесплатно! Внесите свою лепту в развитие PiratBit!
    Комментировать посты могут только пользователи прошедшие не сложную регистрацию
    Показать сообщения:    

    Лекарство от здоровья через торрент
    Скачать бесплатно Лекарство от здоровья
    Лекарство от здоровья скачать торрент
    Лекарство от здоровья смотреть онлайн
    Cкачать фильм Лекарство от здоровья бесплатно
    Лекарство от здоровья скачать торрент в хорошем качестве
    Лекарство от здоровья смотреть онлайн бесплатно в хорошем качестве


    Вы не можете начинать темы
    Вы не можете отвечать на сообщения
    Вы не можете редактировать свои сообщения
    Вы не можете удалять свои сообщения
    Вы не можете голосовать в опросах
    Вы не можете прикреплять файлы к сообщениям
    Вы можете скачивать файлы