Ссылка на приватное зеркало нашего сайта всего за 1$. Внимание количество ограничено!!!

2 сезон

iTunes

1 сезон

1

iTunes

iTunes

iTunes

1 сезон

RePack

30

ИГРА 18+

pack

ВАЖНО

!!Акция!!

Alien_RageХит недели

RePack

MK11
pack

Забери бонус

RePack

jed

!!Акция!!

Alien_Rage

RePack

fifa19

RePack

Assassins Creed: Odyssey

RePack

NEED FOR SPEED™ PAYBACK

4 сезон

9 сезон

Бесстыжие 9 сезон

Все сериалы

все сериалы на PB.wtf

RePack

FAR CRY 5
  

Спецотряд «Шторм» / 1-16 серии из 16 (Валерий Ибрагимов) [2013, драма, криминал, боевик, HDTVRip] pb.wtf

Спецотряд «Шторм» через торрент pb.wtf

Размер: 10.6 GB | Добавлен: 3 года 4 мес. назад | Торрент скачан:165 раз
Скачать  

01-06-2017 19:48 Спецотряд «Шторм» Скачать торрент  

Спецотряд «Шторм»
Год выпуска: 2013
Страна: Россия, Украина
Жанр: драма, криминал, боевик
Продолжительность: 16 х ~ 00:45:00
Субтитры: отсутствуют

Режиссер: Валерий Ибрагимов



В ролях:

Сергей Плотников , Владислав Резник, Виктория Полторак, Ярослав Гуревич, Геннадий Свирь, Валерий Ибрагимов, Александр Агеенков, Вячеслав Василюк, Богдан Паршаков и др.

Описание:

Из Москвы в южный портовый город Приморск с миссией особой важности прибывает майор Иван Мельников, ему предстоит возглавить секретный отряд специального назначения «Шторм» и стать агентом «Буран». В его командование поступают агенты под прикрытием: Дмитрий Зубатов – «Звонарь», Анна Рыженко – «Гроза» и смотритель маяка Филипп Якушев, под псевдонимом «Дядя». Для подтверждения своих легенд герои устраиваются на прозаические гражданские должности. Командир группы майор Мельников идёт в такси, Антон Зубатов занимает вакантную должность сантехнтика в ЖЭКе, обворожительная Анна исполняет обязанности диспетчера в порту. Живя обычной жизнью, они всегда готовы молниеносно превратиться в супергероев и выйти на борьбу с преступниками всех мастей. Когда Приморску и его жителям грозит серьёзная опасность, спецотряд «Шторм» – всегда на передовой. Его бойцы отлично знают, что мир делится на «штормовцев» и всех остальных. Поэтому, несмотря на личные проблемы и бытовую неустроенность, с которыми они сталкиваются в повседневной жизни, спецагенты всегда остаются верны долгу. Но всё же главные герои не машины, а обыкновенные люди. Они могут ошибаться в своих догадках, неправильно трактовать мотивы и улики, подозревать злодеев не в тех людях. Они сами не застрахованы от неприятностей: их могут взять в заложники, ранить или оставить «на сверхурочные». И тем не менее, за какое бы невыполнимое задание ни взялся спецотряд «Шторм» и в какие бы передряги ни попали герои, зрителей ждет хеппи-энд.

Качество: HDTVRip
Формат: AVI
Видео кодек: XviD
Аудио кодек: AC3

Видео: 720x400 (1.80:1), 25 fps, XviD build 73 ~1800 kbps avg, 0.256 bit/pixel
Аудио#1: 48 kHz, AC3 Dolby Digital, 2/0 (L,R) ch, ~192.00 kbps avg
скриншот   скриншот   скриншот   скриншот  

Общее
Полное имя : D:\Specotrjad.Shtorm.HDTVRip.GeneralFilm\Specotrjad.Shtorm.01.HDTVRip.GeneralFilm.avi
Формат : AVI
Формат/Информация : Audio Video Interleave
Размер файла : 678 Мбайт
Продолжительность : 47 м. 23 с.
Общий поток : 2002 Кбит/сек
Программа кодирования : VirtualDubMod 1.5.10.3 | www.virtualdub-fr.org || (build 2550/release)
Библиотека кодирования : VirtualDubMod build 2550/release

Видео
Идентификатор : 0
Формат : MPEG-4 Visual
Профиль формата : Advanced Simple@L5
Параметр BVOP формата : 1
Параметр QPel формата : Нет
Параметр GMC формата : Без точки перехода
Параметр матрицы формата : Выборочная
Идентификатор кодека : XVID
Идентификатор кодека/Подсказка : XviD
Продолжительность : 47 м. 23 с.
Битрейт : 1800 Кбит/сек
Ширина : 720 пикселей
Высота : 400 пикселей
Соотношение сторон : 16:9
Частота кадров : 25,000 кадров/сек
Цветовое пространство : YUV
Субдискретизация насыщенности : 4:2:0
Битовая глубина : 8 бит
Тип развёртки : Прогрессивная
Метод сжатия : С потерями
Бит/(Пиксели*Кадры) : 0.250
Размер потока : 610 Мбайт (90%)
Библиотека кодирования : XviD 73

Аудио
Идентификатор : 1
Формат : AC-3
Формат/Информация : Audio Coding 3
Расширение режима : CM (complete main)
Параметр Endianness формата : Big
Идентификатор кодека : 2000
Продолжительность : 47 м. 23 с.
Вид битрейта : Постоянный
Битрейт : 192 Кбит/сек
Каналы : 2 канала
Расположение каналов : Front: L R
Частота : 48,0 КГц
Частота кадров : 31,250 кадров/сек (1536 spf)
Метод сжатия : С потерями
Размер потока : 65,1 Мбайт (10%)
Выравнивание : Разделение по промежуткам
Продолжительность промежутка : 40 мс. (1,00 видеокадр)
Время предзагрузки промежутка : 500 мс.

pb.wtf



Скачать Спецотряд «Шторм» через торрент http://rudb.org/img/2017_06/i592fa6a3aa68d.jpg Скачать фильм Спецотряд «Шторм» через торрент бесплантно в хорошем качестве Описание: Из Москвы в южный портовый город Приморск с миссией особой важности прибывает майор Иван Мельников, ему предстоит возглавить ... 10 10 4
Торрент: Зарегистрирован [2017-06-01 19:48] · скачан: 165 раз
Статус: √ проверено
Размер: 10.6 GB
Как cкачать? Как скачать Спецотряд «Шторм» через торрент | qTorrent

28-11-2019 20:33  

Отключить всю рекламу на сайте

    Дорогой пользователь! Огромная просьба, поблагодарите релизера, оцените раздачу и оставьте свои комментарий, если Вы скачали Спецотряд «Шторм» через торрент бесплатно! Внесите свою лепту в развитие PiratBit!
    Комментировать посты могут только пользователи прошедшие не сложную регистрацию
    Показать сообщения:    

    Спецотряд «Шторм» через торрент
    Скачать бесплатно Спецотряд «Шторм»
    Спецотряд «Шторм» скачать торрент
    Спецотряд «Шторм» смотреть онлайн
    Cкачать фильм Спецотряд «Шторм» бесплатно
    Спецотряд «Шторм» скачать торрент в хорошем качестве
    Спецотряд «Шторм» смотреть онлайн бесплатно в хорошем качестве


    Вы не можете начинать темы
    Вы не можете отвечать на сообщения
    Вы не можете редактировать свои сообщения
    Вы не можете удалять свои сообщения
    Вы не можете голосовать в опросах
    Вы не можете прикреплять файлы к сообщениям
    Вы можете скачивать файлы