2 сезон

iTunes

MVO

1

2 сезон

iTunes

iTunes

1 сезон

RePack

30

Новинка

ВАЖНО

ИГРА 18+

pack

RePack

MK11
pack

Легкие деньги

RePack

jed

RePack

fifa19

RePack

RDR2

RePack

NEED FOR SPEED™ PAYBACK

4 сезон

9 сезон

Бесстыжие 9 сезон

Все сериалы

все сериалы на PB.wtf

RePack

FAR CRY 5

Anonymous, добрый вечер, мы не успеваем собрать деньги на оплату серверов за декабрь и январь, помогите нам пожалуйста в это трудное время. В качестве благодарности мы отключим Вам всю рекламу на сайте (укажите свой ник в строку Ваше имя)!

×
  
Magnet ссылка

Лекарство от здоровья / A Cure for Wellness (Гор Вербински) [2016, ужасы, фантастика, фэнтези, BDRip-AVC от R.G.Resident] DUB [Лицензия Blu-ray EUR] pb.wtf

Лекарство от здоровья через торрент pb.wtf

Раздают: 1 [ 0 KB/s ]
Размер: 3.14 GB | Добавлен: 3 года 7 мес. назад | Торрент скачан:467 раз
Скачать  

02-06-2017 13:27 Лекарство от здоровья Скачать торрент  

Лекарство от здоровья / A Cure for Wellness

Год выпуска: 2016
Страна: Германия, США
Жанр: ужасы, фантастика, фэнтези, триллер, драма, детектив

Продолжительность: 02:26:33
Перевод: Дубляж [Лицензия]
Субтитры: Русские (Forced, Full), Английские (SDH)
Режиссер: Гор Вербински
В ролях:

Дэйн ДеХаан (Lockhart), Джейсон Айзекс (Volmer), Миа Гот (Hannah), Иво Нанди (Enrico), Адриан Шиллер (Deputy Director), Селия Имри (Victoria Watkins), Гарри Гронер (Pembroke), Томас Норстрем (Frank Hill), Ашок Манданна (Ron Nair), Магнус Креппер (Pieter The Vet), Питер Бенедикт (Constable), Михаэль Мендль (Bartender)
Описание:
Молодой амбициозный сотрудник отправляется в затерянный в швейцарских Альпах оздоровительный центр, чтобы вернуть оттуда руководителя своей компании. Но по прибытии он понимает, что чудодейственные процедуры спа-салона вовсе не те, чем кажутся. В то время как парень начинает распутывать страшные тайны этого места, его здравый ум проходит настоящую проверку на прочность. Похоже, теперь он страдает той же странной болезнью, по причине которой здесь остаются другие гости центра, желающие получить свою дозу лекарства.
Рейтинг:

MPAA: R - Лицам до 17 лет обязательно присутствие взрослого
Качество: BDRip-AVC
Формат: MKV
Видео: AVC, 1024x576 (16:9), 2171 kbps, 23,976 fps, 0,154 bpp
Аудио №1: русский / AC3 / 5.1 / 48 kHz / 448 kbps / |Дубляж|
Аудио №2: английский / AC3 / 5.1 / 48 kHz / 448 kbps /
Навигация по главам: есть

Общее
Уникальный идентификатор : 213784902319304399783258202417402670100 (0xA0D579790F1F6678B3AD8CFFC7AAEC14)
Полное имя : E:\A.Cure.for.Wellness.2016.Dub.BDRip.AVC.R.G.Resident.mkv
Формат : Matroska
Версия формата : Version 4 / Version 2
Размер файла : 3,14 Гбайт
Продолжительность : 2 ч. 26 м.
Общий поток : 3068 Кбит/сек
Название фильма : Лекарство от здоровья (2016) BDRip-AVC от R.G. Resident
Дата кодирования : UTC 2017-06-08 05:37:06
Программа кодирования : mkvmerge v12.0.0 ('Trust / Lust') 64bit
Библиотека кодирования : libebml v1.3.4 + libmatroska v1.4.5
Обложка : Yes
Attachments : cover.jpg

Видео
Идентификатор : 1
Формат : AVC
Формат/Информация : Advanced Video Codec
Профиль формата : High@L4.1
Параметр CABAC формата : Да
Параметр ReFrames формата : 9 кадров
Идентификатор кодека : V_MPEG4/ISO/AVC
Продолжительность : 2 ч. 26 м.
Битрейт : 2171 Кбит/сек
Ширина : 1024 пикселя
Высота : 576 пикселей
Соотношение сторон : 16:9
Режим частоты кадров : Постоянный
Частота кадров : 23,976 (24000/1001) кадра/сек
Цветовое пространство : YUV
Субдискретизация насыщенности : 4:2:0
Битовая глубина : 8 бит
Тип развёртки : Прогрессивная
Бит/(Пиксели*Кадры) : 0.154
Размер потока : 2,22 Гбайт (71%)
Заголовок : -Lexx-
Библиотека кодирования : x264 core 146 r2538 121396c
Настройки программы : cabac=1 / ref=9 / deblock=1:-2:-1 / analyse=0x3:0x113 / me=umh / subme=11 / psy=1 / psy_rd=1.00:0.00 / mixed_ref=1 / me_range=48 / chroma_me=1 / trellis=2 / 8x8dct=1 / cqm=0 / deadzone=21,11 / fast_pskip=0 / chroma_qp_offset=-2 / threads=6 / lookahead_threads=1 / sliced_threads=0 / nr=0 / decimate=0 / interlaced=0 / bluray_compat=0 / constrained_intra=0 / bframes=10 / b_pyramid=2 / b_adapt=2 / b_bias=0 / direct=3 / weightb=1 / open_gop=0 / weightp=2 / keyint=240 / keyint_min=23 / scenecut=40 / intra_refresh=0 / rc_lookahead=40 / rc=2pass / mbtree=0 / bitrate=2171 / ratetol=1.0 / qcomp=0.60 / qpmin=0 / qpmax=69 / qpstep=4 / cplxblur=20.0 / qblur=0.5 / vbv_maxrate=50000 / vbv_bufsize=62500 / nal_hrd=none / filler=0 / ip_ratio=1.40 / pb_ratio=1.30 / aq=1:1.00
Язык : English
Default : Да
Forced : Нет

Аудио #1
Идентификатор : 2
Формат : AC-3
Формат/Информация : Audio Coding 3
Параметр Endianness формата : Big
Идентификатор кодека : A_AC3
Продолжительность : 2 ч. 26 м.
Вид битрейта : Постоянный
Битрейт : 448 Кбит/сек
Каналы : 6 каналов
Расположение каналов : Front: L C R, Side: L R, LFE
Частота : 48,0 КГц
Частота кадров : 31,250 кадров/сек (1536 spf)
Битовая глубина : 16 бит
Метод сжатия : С потерями
Размер потока : 470 Мбайт (15%)
Заголовок : Дубляж Blu-ray EUR
Язык : Russian
ServiceKind/String : Complete Main
Default : Да
Forced : Нет

Аудио #2
Идентификатор : 3
Формат : AC-3
Формат/Информация : Audio Coding 3
Параметр Endianness формата : Big
Идентификатор кодека : A_AC3
Продолжительность : 2 ч. 26 м.
Вид битрейта : Постоянный
Битрейт : 448 Кбит/сек
Каналы : 6 каналов
Расположение каналов : Front: L C R, Side: L R, LFE
Частота : 48,0 КГц
Частота кадров : 31,250 кадров/сек (1536 spf)
Битовая глубина : 16 бит
Метод сжатия : С потерями
Размер потока : 470 Мбайт (15%)
Заголовок : Оригинал
Язык : English
ServiceKind/String : Complete Main
Default : Нет
Forced : Нет

Текст #1
Идентификатор : 4
Формат : UTF-8
Идентификатор кодека : S_TEXT/UTF8
Идентификатор кодека/Информация : UTF-8 Plain Text
Продолжительность : 2 ч. 13 м.
Битрейт : 0 бит/сек
ElementCount : 12
Размер потока : 443 байт (0%)
Заголовок : Forced
Язык : Russian
Default : Да
Forced : Нет

Текст #2
Идентификатор : 5
Формат : UTF-8
Идентификатор кодека : S_TEXT/UTF8
Идентификатор кодека/Информация : UTF-8 Plain Text
Продолжительность : 2 ч. 23 м.
Битрейт : 45 бит/сек
ElementCount : 1202
Размер потока : 48,0 Кбайт (0%)
Заголовок : Full
Язык : Russian
Default : Нет
Forced : Нет

Текст #3
Идентификатор : 6
Формат : UTF-8
Идентификатор кодека : S_TEXT/UTF8
Идентификатор кодека/Информация : UTF-8 Plain Text
Продолжительность : 2 ч. 20 м.
Битрейт : 37 бит/сек
ElementCount : 1475
Размер потока : 38,4 Кбайт (0%)
Заголовок : SDH
Язык : English
Default : Нет
Forced : Нет

Меню
00:00:00.000 : en: Chapter 1
00:03:37.092 : en: Chapter 2
00:09:18.349 : en: Chapter 3
00:13:22.343 : en: Chapter 4
00:16:55.681 : en: Chapter 5
00:22:49.910 : en: Chapter 6
00:27:42.035 : en: Chapter 7
00:32:01.878 : en: Chapter 8
00:38:23.843 : en: Chapter 9
00:44:51.397 : en: Chapter 10
00:51:22.162 : en: Chapter 11
00:56:50.782 : en: Chapter 12
01:01:31.062 : en: Chapter 13
01:08:08.293 : en: Chapter 14
01:13:12.221 : en: Chapter 15
01:17:02.284 : en: Chapter 16
01:21:08.447 : en: Chapter 17
01:25:17.195 : en: Chapter 18
01:29:20.355 : en: Chapter 19
01:34:59.277 : en: Chapter 20
01:40:19.513 : en: Chapter 21
01:43:49.181 : en: Chapter 22
01:47:46.794 : en: Chapter 23
01:52:30.661 : en: Chapter 24
01:56:30.775 : en: Chapter 25
02:04:22.121 : en: Chapter 26
02:09:17.458 : en: Chapter 27
02:19:59.057 : en: Chapter 28
pb.wtf



Скачать Лекарство от здоровья через торрент http://i77.fastpic.ru/big/2016/0417/a7/808a646271c761f7c7d87df3d366b3a7.png Скачать фильм Лекарство от здоровья через торрент бесплантно в хорошем качестве Описание: Молодой амбициозный сотрудник отправляется в затерянный в швейцарских Альпах оздоровительный центр, чтобы вернуть оттуда ... 9.4 10 21
× Info от релизера! Торрент перезалит. Замена звука на Дубляж (Лицензия Blu-ray EUR).
Info! Золотая раздача, скачанное не засчитывается.
Торрент: Зарегистрирован [2017-06-08 05:49] · скачан: 467 раз
Статус: √ проверено
Размер: 3.14 GB
Как cкачать? Как скачать Лекарство от здоровья через торрент | UTorrent

% Раздел Тема Автор DL S | L
Фильмы (Blu-ray, BD-Remux, HDDVD) [ 30.26 GB ] Лекарство от здоровья / A Cure for Wellness [2016 BD Remux 1080p] DUB [] bober100 Скачать
2 | 0
R.G. Resident & PiratVoice - Фильмы, Видео [ 7.46 GB ] Лекарство от здоровья / A Cure for Wellness [2016 BDRip 720p] - [] - R.G.Resident schultz Скачать
1 | 0
Фильмы без перевода [ 29.61 GB ] Лекарство от здоровья / A Cure for Wellness [2017 BD Remux] [Оригинал-ENG] smaster Скачать
1 | 0
Фильмы 2016 [DVDrip, WEB-DLRip, HDrip] (DUB, MVO) [ 2.18 GB ] Лекарство от здоровья / A Cure for Wellness [2016 BDRip] - [] Twi7ter Скачать
1 | 0
Фильмы 2016 [DVDrip, WEB-DLRip, HDrip] (DUB, MVO) [ 1.46 GB ] Лекарство от здоровья / A Cure for Wellness [2016 BDRip] - [] Twi7ter Скачать
2 | 0
Фильмы 2016 [DVDrip, WEB-DLRip, HDrip] (DUB, MVO) [ 2.87 GB ] Лекарство от здоровья / A Cure for Wellness [2016 BDRip-AVC] - ExKinoRay Enigma2010 Скачать
1 | 0
R.G. Resident & PiratVoice - Фильмы, Видео [ 2.19 GB ] Лекарство от здоровья / A Cure for Wellness [2016 BDRip ] [ Blu-ray EUR] -Lexx- Скачать
2 | 0


Последний раз редактировалось: -Lexx- (2017-06-08 05:53), всего редактировалось 2 раз(а)

28-11-2019 20:33  

Отключить всю рекламу на сайте

04-06-2017 18:12 Лекарство от здоровья Скачать торрент  

такая фигня .даже смотреть усталpb.wtf



08-06-2017 07:02 Лекарство от здоровья Скачать торрент  

Спасибо заберу, как раз на флешке места хватит..а то 1080p не влазит.pb.wtf
K-Lexx- писал(а):

Приятного просмотра.



16-06-2017 11:59 Лекарство от здоровья Скачать торрент  

батонычъ писал(а):

такая фигня .даже смотреть устал

полностью согласен фигня но чисто из любопытства досмотрел до конца правда
смотрел с перерывамиpb.wtf



01-07-2017 12:22 Лекарство от здоровья Скачать торрент  

клюв писал(а):

батонычъ писал(а):

такая фигня .даже смотреть устал

полностью согласен фигня но чисто из любопытства досмотрел до конца правда
смотрел с перерывами

Мне лично понравилось. Большую часть фильма проводил аналогии с "остров проклятых", да развязка подкачала, да фильм затянут, не этого я ждал. Но в целом фильм атмосферный и интригующий. Смотрел с удовольствием с друзьями и кегой.pb.wtf



    Дорогой пользователь! Огромная просьба, поблагодарите релизера, оцените раздачу и оставьте свои комментарий, если Вы скачали Лекарство от здоровья через торрент бесплатно! Внесите свою лепту в развитие PiratBit!
    Комментировать посты могут только пользователи прошедшие не сложную регистрацию
    Показать сообщения:    

    Лекарство от здоровья через торрент
    Скачать бесплатно Лекарство от здоровья
    Лекарство от здоровья скачать торрент
    Лекарство от здоровья смотреть онлайн
    Cкачать фильм Лекарство от здоровья бесплатно
    Лекарство от здоровья скачать торрент в хорошем качестве
    Лекарство от здоровья смотреть онлайн бесплатно в хорошем качестве


    Вы не можете начинать темы
    Вы не можете отвечать на сообщения
    Вы не можете редактировать свои сообщения
    Вы не можете удалять свои сообщения
    Вы не можете голосовать в опросах
    Вы не можете прикреплять файлы к сообщениям
    Вы можете скачивать файлы