2 сезон

iTunes

MVO

1

2 сезон

iTunes

iTunes

1 сезон

RePack

30

Новинка

ВАЖНО

ИГРА 18+

pack

RePack

MK11
pack

Легкие деньги

RePack

jed

RePack

fifa19

RePack

RDR2

RePack

NEED FOR SPEED™ PAYBACK

4 сезон

9 сезон

Бесстыжие 9 сезон

Все сериалы

все сериалы на PB.wtf

RePack

FAR CRY 5

Anonymous, доброй ночи, мы не успеваем собрать деньги на оплату серверов за декабрь и январь, помогите нам пожалуйста в это трудное время. В качестве благодарности мы отключим Вам всю рекламу на сайте (укажите свой ник в строку Ваше имя)!

×
  
Magnet ссылка

Юлия Савичева – Малыш [2017 г., Pop, HDTVRip 1080p] pb.wtf

Юлия Савичева – Малыш через торрент pb.wtf

Размер: 373 MB | Добавлен: 3 года 7 мес. назад | Торрент скачан:50 раз
Скачать  

03-06-2017 14:49 Юлия Савичева – Малыш Скачать торрент  

Юлия Савичева – Малыш
Год выпуска: 2017
Жанр: Pop
Продолжительность: 00:03:06
Качество: HDTVRip 1080p
Формат: MPEG4
Видео кодек: AVC
Аудио кодек:AAC
Видео: MPEG4 AVC, 1920x1080, 25,000 fps, 16,6 Мбит/с
Аудио#1: AAC 44,1 kHz, 2 ch, 192 kbps
Общее
Полное имя : Юлия Савичева – Малыш.mp4
Формат : MPEG-4
Профиль формата : Base Media / Version 2
Идентификатор кодека : mp42 (mp42/isom)
Размер файла : 373 Мбайт
Продолжительность : 3 м. 6 с.
Режим общего битрейта : Переменный
Общий поток : 16,8 Мбит/сек
Дата кодирования : UTC 2017-06-03 13:25:30
Дата пометки : UTC 2017-06-03 13:25:30

Видео
Идентификатор : 1
Формат : AVC
Формат/Информация : Advanced Video Codec
Профиль формата : High@L5
Параметр CABAC формата : Да
Параметр ReFrames формата : 5 кадров
Идентификатор кодека : avc1
Идентификатор кодека/Информация : Advanced Video Coding
Продолжительность : 3 м. 6 с.
Продолжительность оригинала : 3 м. 6 с.
Вид битрейта : Переменный
Битрейт : 16,6 Мбит/сек
Максимальный битрейт : 40,0 Мбит/сек
Ширина : 1920 пикселей
Высота : 1080 пикселей
Соотношение сторон : 16:9
Режим частоты кадров : Переменный
Частота кадров : 25,000 кадров/сек
Минимальная частота кадров : 25,000 кадров/сек
Максимальная частота кадров : 25,007 кадров/сек
Цветовое пространство : YUV
Субдискретизация насыщенности : 4:2:0
Битовая глубина : 8 бит
Тип развёртки : Прогрессивная
Бит/(Пиксели*Кадры) : 0.320
Размер потока : 369 Мбайт (99%)
Размер потока оригинала : 369 Мбайт (99%)
Язык : English
Дата кодирования : UTC 2017-06-03 13:25:30
Дата пометки : UTC 2017-06-03 13:25:30
mdhd_Duration : 186520

Аудио
Идентификатор : 2
Формат : AAC
Формат/Информация : Advanced Audio Codec
Профиль формата : LC
Идентификатор кодека : 40
Продолжительность : 3 м. 6 с.
Продолжительность оригинала : 3 м. 6 с.
Вид битрейта : Переменный
Битрейт : 192 Кбит/сек
Каналы : 2 канала
Расположение каналов : Front: L R
Частота : 44,1 КГц
Частота кадров : 43,066 кадра/сек (1024 spf)
Метод сжатия : С потерями
Размер потока : 4,27 Мбайт (1%)
Размер потока оригинала : 4,27 Мбайт (1%)
Язык : English
Дата кодирования : UTC 2017-06-03 13:25:30
Дата пометки : UTC 2017-06-03 13:25:30
mdhd_Duration : 186567
pb.wtf



Скачать Юлия Савичева – Малыш через торрент http://funkyimg.com/i/2tShP.jpg Скачать фильм Юлия Савичева – Малыш [2017 г., Pop, HDTVRip 1080p]через торрент бесплантно в хорошем качестве Год выпуска: 2017Жанр: PopПродолжительность: ... 10 10 4
Торрент: Зарегистрирован [2017-06-03 14:49] · скачан: 50 раз
Статус: √ проверено
Размер: 373 MB
Как cкачать? Как скачать Юлия Савичева – Малыш через торрент | UTorrent

% Раздел Тема Автор DL S | L
Клипы [ 527 MB ] Юлия Савичева – Малыш [клип] [2017 Поп UHD WEBRip 2160p] bober100 Скачать
1 | 0

28-11-2019 20:33  

Отключить всю рекламу на сайте

    Дорогой пользователь! Огромная просьба, поблагодарите релизера, оцените раздачу и оставьте свои комментарий, если Вы скачали Юлия Савичева – Малыш через торрент бесплатно! Внесите свою лепту в развитие PiratBit!
    Комментировать посты могут только пользователи прошедшие не сложную регистрацию
    Показать сообщения:    

    Юлия Савичева – Малыш через торрент
    Скачать бесплатно Юлия Савичева – Малыш
    Юлия Савичева – Малыш скачать торрент
    Юлия Савичева – Малыш смотреть онлайн
    Cкачать фильм Юлия Савичева – Малыш бесплатно
    Юлия Савичева – Малыш скачать торрент в хорошем качестве
    Юлия Савичева – Малыш смотреть онлайн бесплатно в хорошем качестве


    Вы не можете начинать темы
    Вы не можете отвечать на сообщения
    Вы не можете редактировать свои сообщения
    Вы не можете удалять свои сообщения
    Вы не можете голосовать в опросах
    Вы не можете прикреплять файлы к сообщениям
    Вы можете скачивать файлы