Всегда рабочее зеркало без VPN и Proxy просто перед .vidak.icu напиши любое слово или цифру, Пример http://9hex.vidak.icu

MVO

2 сезон

2 сезон

1

1 сезон

iTunes

2 сезон

13

1 сезон

Распродажа

pack

Рекомендуем

Пиратка

30

ВАЖНО

RePack

MK11

RePack

jed

RePack

fifa19

RePack

RDR2

RePack

NEED FOR SPEED™ PAYBACK

Кинопоиск HD

6 сезон

 Острые козырьки 6 сезон

Все сериалы

все сериалы на PB.wtf

RePack

FAR CRY 5

Anonymous, нам критически не хватает 5601 руб. на оплату серверов и переферии за Апрель, помоги нам пожалуйста, вся надежда только на тебя. В благодарность мы отключим тебе всю рекламу на сайте!

×
  
Magnet ссылка

Футбол. Лига чемпионов 2016-17. Финал. Ювентус (Италия) - Реал Мадрид (Испания) + Превью [2017, Футбол, HDTVRip] DVO pb.wtf

Футбол. Лига чемпионов 2016-17. Финал. Ювентус через торрент pb.wtf

Размер: 2.04 GB | Добавлен: 4 года 11 мес. назад | Торрент скачан:70 раз
Смотреть онлайн Футбол. Лига чемпионов 2016-17. Финал. Ювентус | Скачать    Ребята, помогите собрать деньги на оплату серверов!!!

04-06-2017 06:31 Футбол. Лига чемпионов 2016-17. Финал. Ювентус Скачать торрент  

Футбол. Лига чемпионов 2016-17. Финал. Ювентус (Италия) - Реал Мадрид (Испания) + Превью Ювентус (Италия) - Реал Мадрид (Испания)

Год выпуска: 2017
Вид спорта: Футбол
Продолжительность: 02:13:52
Язык комментариев: Русский (Сергей Кривохарченко, Александр Шмурнов) / Интершум
Комментарий: Профессиональный (двухголосый)

Описание:

03 июня 2017, суббота. 21:45 МСК
Финал Лиги Чемпионов
Стадион: Миллениум (Кардифф, Уэльс) , вместимость: 74500
Главный судья: Феликс Брих (Мюнхен, Германия) Ассистент: Марк Борш (Мёнхенгладбах, Германия) Ассистент: Штефан Лупп (Цоссен, Германия)

Качество: HDTVRip
Формат: AVI
Видео кодек: XviD
Аудио кодек: MP3

Видео: XviD, 704x400, ~1900 kbps, 25 fps, 0.270 bit/pixe
Аудио#1: MP3, 128 Kbps, 2 ch
Аудио#2: MP3, 128 Kbps, 2 ch
скриншот   скриншот   скриншот   скриншот  

скриншот   скриншот   скриншот   скриншот  
Общее
Полное имя : D:\ChampionsLeague.2016-2017.Final.Juventus-Real.Madrid.HDTVRip [Rip by Вайделот].avi
Формат : AVI
Формат/Информация : Audio Video Interleave
Профиль формата : OpenDML
Размер файла : 2,04 Гбайт
Продолжительность : 2 ч. 13 м.
Общий поток : 2177 Кбит/сек
Программа кодирования : Lavf57.71.100

Видео
Идентификатор : 0
Формат : MPEG-4 Visual
Профиль формата : Advanced Simple@L5
Параметр BVOP формата : 2
Параметр QPel формата : Нет
Параметр GMC формата : Без точки перехода
Параметр матрицы формата : Default (H.263)
Идентификатор кодека : XVID
Идентификатор кодека/Подсказка : XviD
Продолжительность : 2 ч. 13 м.
Битрейт : 1900 Кбит/сек
Ширина : 704 пикселя
Высота : 400 пикселей
Соотношение сторон : 16:9
Частота кадров : 25,000 кадров/сек
Цветовое пространство : YUV
Субдискретизация насыщенности : 4:2:0
Битовая глубина : 8 бит
Тип развёртки : Прогрессивная
Метод сжатия : С потерями
Бит/(Пиксели*Кадры) : 0.270
Размер потока : 1,78 Гбайт (87%)
Библиотека кодирования : XviD 67

Аудио #1
Идентификатор : 1
Формат : MPEG Audio
Версия формата : Version 1
Профиль формата : Layer 3
Режим : Joint stereo
Расширение режима : MS Stereo
Идентификатор кодека : 55
Идентификатор кодека/Подсказка : MP3
Продолжительность : 2 ч. 13 м.
Вид битрейта : Постоянный
Битрейт : 128 Кбит/сек
Каналы : 2 канала
Частота : 48,0 КГц
Метод сжатия : С потерями
Размер потока : 123 Мбайт (6%)
Выравнивание : Соединение по промежуткам
Продолжительность промежутка : 24 мс. (0,60 видеокадр)

Аудио #2
Идентификатор : 2
Формат : MPEG Audio
Версия формата : Version 1
Профиль формата : Layer 3
Режим : Joint stereo
Расширение режима : MS Stereo
Идентификатор кодека : 55
Идентификатор кодека/Подсказка : MP3
Продолжительность : 2 ч. 13 м.
Вид битрейта : Постоянный
Битрейт : 128 Кбит/сек
Каналы : 2 канала
Частота : 48,0 КГц
Метод сжатия : С потерями
Размер потока : 123 Мбайт (6%)
Выравнивание : Соединение по промежуткам
Продолжительность промежутка : 24 мс. (0,60 видеокадр)
pb.wtf



Скачать Футбол. Лига чемпионов 2016-17. Финал. Ювентус через торрент http://lostpic.net/orig_images/a/0/4/a047738c64580527f44bc13c34c5ddf7.png Скачать, смотреть онлайн Футбол. Лига чемпионов 2016-17. Финал. Ювентус бесплантно в хорошем качестве Описание: 03 июня 2017, суббота. 21:45 МСКФинал Лиги ЧемпионовСтадион: Миллениум (Кардифф, Уэльс) , вместимость: 74500Главный судья: Феликс ... 10 10 5
Торрент: Зарегистрирован [2017-06-04 06:31] · скачан: 70 раз
Статус: √ проверено
Размер: 2.04 GB
Как cкачать? Как скачать Футбол. Лига чемпионов 2016-17. Финал. Ювентус через торрент | UTorrent

28-11-2019 20:33  

Отключить всю рекламу на сайте

    Дорогой пользователь! Огромная просьба, поблагодарите релизера, оцените раздачу и оставьте свои комментарий, если Вы скачали Футбол. Лига чемпионов 2016-17. Финал. Ювентус через торрент бесплатно!
    Комментировать посты могут только пользователи прошедшие не сложную регистрацию
    Показать сообщения:    

    Футбол. Лига чемпионов 2016-17. Финал. Ювентус через торрент
    Скачать бесплатно Футбол. Лига чемпионов 2016-17. Финал. Ювентус
    Футбол. Лига чемпионов 2016-17. Финал. Ювентус скачать торрент
    Футбол. Лига чемпионов 2016-17. Финал. Ювентус смотреть онлайн
    Cкачать фильм Футбол. Лига чемпионов 2016-17. Финал. Ювентус бесплатно
    Футбол. Лига чемпионов 2016-17. Финал. Ювентус скачать торрент в хорошем качестве
    Футбол. Лига чемпионов 2016-17. Финал. Ювентус смотреть онлайн бесплатно в хорошем качестве


    Вы не можете начинать темы
    Вы не можете отвечать на сообщения
    Вы не можете редактировать свои сообщения
    Вы не можете удалять свои сообщения
    Вы не можете голосовать в опросах
    Вы не можете прикреплять файлы к сообщениям
    Вы можете скачивать файлы