Ссылка на приватное зеркало нашего сайта всего за 1$. Внимание количество ограничено!!!

2 сезон

iTunes

1 сезон

1

2 сезон

2 сезон

iTunes

1 сезон

RePack

30

Ultimate

ВАЖНО

ИГРА 18+

pack

RePack

MK11
pack

Забери бонус

RePack

jed

!!Акция!!

Alien_Rage

RePack

fifa19

RePack

Assassins Creed: Odyssey

RePack

NEED FOR SPEED™ PAYBACK

4 сезон

9 сезон

Бесстыжие 9 сезон

Все сериалы

все сериалы на PB.wtf

RePack

FAR CRY 5
  

Кардинал / Cardinal / Сезон 1 / Серии 1-6 из 6 (Дэниэл Гру) [2017 г., триллер, драма, криминал, HDTVRip 720p] DVO (GoldTeam) pb.wtf

Кардинал через торрент pb.wtf

Размер: 4.86 GB | Добавлен: 3 года 5 мес. назад | Торрент скачан:93 раза
Скачать  

04-06-2017 13:25 Кардинал Скачать торрент  

Кардинал / CardinalГод выпуска: 2017
Страна: Канада
Жанр: триллер, драма, криминал
Продолжительность: 6 x ~ 00:42:00
Перевод: Любительский двухголосый (GoldTeam)
Субтитры: русские [Focs], английские

Режиссер: Дэниэл Гру
В ролях: Билл Кэмпбелл, Кристен Томсон, Глен Гулд, Дебора Хэй, Алдон Адэйр, Джеймс Доунинг, Эрик Хикс, Джеймс Томас, Карин Ванасс, Элли МакДональд

rating

Описание: В заброшенной шахте городка найдено тело тринадцатилетней Кейти Пайн, судя по уликам, погибшей в результате насильственной смерти. За расследование дела берутся полицейские детективы: Джон Кардинал, одолеваемый демонами из далёкого прошлого, и Лиз Делорм, рождённая в местной франкоговорящей общине.

Доп. информация: ГОЛОСОВАЯ РЕКЛАМА В КОНЦЕ СЕРИИ

Качество: HDTVRip 720p
Формат: MKV
Видео кодек: H.264
Аудио кодек: MP3, AC3
Видео: AVC, 1280x640 (2.000), 23.976 fps ~ 1650 Kbps
Аудио#1: 48 KHz 2 ch ~ 128 Kb/s (русский)
Аудио#2: 48 KHz 6 ch ~ 384 Kb/s (английский)
скриншот   скриншот   скриншот   скриншот   скриншот   скриншот   скриншот  

Общее
Уникальный идентификатор : 254580754990689479573108963578602980523 (0xBF86784D5742C7F0953C7AB55D4A04AB)
Полное имя : Q:\TorF\Cardinal - Season 1 HDTVRip 720p_L2 (FOCS sub)\Cardinal.s01e01.HDTV.720p.rus.sub.FOCS.mkv
Формат : Matroska
Версия формата : Version 2
Размер файла : 685 Мбайт
Продолжительность : 43 м.
Общий поток : 2211 Кбит/сек
Название фильма : Cardinal.S01E01.720p.rus.sub.FOCS for Rutracker.org
Дата кодирования : UTC 2017-05-06 12:16:46
Программа кодирования : mkvmerge v5.4.0 ('Piper') built on Mar 10 2012 13:34:39
Библиотека кодирования : libebml v1.2.3 + libmatroska v1.3.0
DURATION : 00:40:21.870000000
NUMBER_OF_FRAMES : 687
NUMBER_OF_BYTES : 19627
_STATISTICS_WRITING_APP : mkvmerge v9.9.0 ('Pick Up') 32bit
_STATISTICS_WRITING_DATE_UTC : 2017-02-26 07:37:39
_STATISTICS_TAGS : BPS DURATION NUMBER_OF_FRAMES NUMBER_OF_BYTES

Видео
Идентификатор : 1
Формат : AVC
Формат/Информация : Advanced Video Codec
Профиль формата : High@L4.1
Параметр CABAC формата : Да
Параметр ReFrames формата : 5 кадров
Идентификатор кодека : V_MPEG4/ISO/AVC
Продолжительность : 43 м.
Битрейт : 1655 Кбит/сек
Ширина : 1280 пикселей
Высота : 640 пикселей
Соотношение сторон : 2,000
Частота кадров : 23,976 кадра/сек
Цветовое пространство : YUV
Субдискретизация насыщенности : 4:2:0
Битовая глубина : 8 бит
Тип развёртки : Прогрессивная
Бит/(Пиксели*Кадры) : 0.084
Размер потока : 513 Мбайт (75%)
Заголовок : Cardinal.S01E01.720p
Библиотека кодирования : x264 core 148 r2744 b97ae06
Настройки программы : cabac=1 / ref=5 / deblock=1:0:0 / analyse=0x3:0x113 / me=hex / subme=8 / psy=1 / psy_rd=1.00:0.00 / mixed_ref=1 / me_range=16 / chroma_me=1 / trellis=2 / 8x8dct=1 / cqm=0 / deadzone=21,11 / fast_pskip=1 / chroma_qp_offset=-2 / threads=20 / lookahead_threads=3 / sliced_threads=0 / nr=0 / decimate=1 / interlaced=0 / bluray_compat=0 / constrained_intra=0 / bframes=3 / b_pyramid=2 / b_adapt=1 / b_bias=0 / direct=3 / weightb=1 / open_gop=0 / weightp=2 / keyint=250 / keyint_min=23 / scenecut=40 / intra_refresh=0 / rc_lookahead=50 / rc=crf / mbtree=1 / crf=18.0 / qcomp=0.60 / qpmin=0 / qpmax=69 / qpstep=4 / ip_ratio=1.40 / aq=1:1.00
Язык : English
Default : Да
Forced : Нет
DURATION : 00:43:17.178000000
NUMBER_OF_FRAMES : 62270
NUMBER_OF_BYTES : 551496445
_STATISTICS_WRITING_APP : mkvmerge v9.9.0 ('Pick Up') 32bit
_STATISTICS_WRITING_DATE_UTC : 2017-02-26 07:37:39
_STATISTICS_TAGS : BPS DURATION NUMBER_OF_FRAMES NUMBER_OF_BYTES
Коэффициенты матрицы : BT.709-5, BT.1361, IEC 61966-2-4 709, SMPTE RP177

Аудио #1
Идентификатор : 2
Формат : MPEG Audio
Версия формата : Version 1
Профиль формата : Layer 3
Режим : Joint stereo
Расширение режима : MS Stereo
Идентификатор кодека : A_MPEG/L3
Идентификатор кодека/Подсказка : MP3
Продолжительность : 42 м.
Вид битрейта : Постоянный
Битрейт : 128 Кбит/сек
Каналы : 2 канала
Частота : 48,0 КГц
Метод сжатия : С потерями
Размер потока : 39,2 Мбайт (6%)
Заголовок : GT
Библиотека кодирования : LAME3.99r
Настройки программы : -m j -V 4 -q 2 -lowpass 17 -b 128
Язык : Russian
Default : Да
Forced : Нет

Аудио #2
Идентификатор : 3
Формат : AC-3
Формат/Информация : Audio Coding 3
Расширение режима : CM (complete main)
Идентификатор кодека : A_AC3
Продолжительность : 43 м.
Вид битрейта : Постоянный
Битрейт : 384 Кбит/сек
Каналы : 6 каналов
Расположение каналов : Front: L C R, Side: L R, LFE
Частота : 48,0 КГц
Битовая глубина : 16 бит
Метод сжатия : С потерями
Размер потока : 119 Мбайт (17%)
Заголовок : Cardinal.S01E01.DD5.1
Язык : English
Default : Нет
Forced : Нет

Текст #1
Идентификатор : 4
Формат : UTF-8
Идентификатор кодека : S_TEXT/UTF8
Идентификатор кодека/Информация : UTF-8 Plain Text
Заголовок : FOCS
Язык : Russian
Default : Да
Forced : Нет

Текст #2
Идентификатор : 5
Формат : UTF-8
Идентификатор кодека : S_TEXT/UTF8
Идентификатор кодека/Информация : UTF-8 Plain Text
Язык : English
Default : Нет
Forced : Нет

pb.wtf



Скачать Кардинал через торрент http://pic.kartinco.top/images/11/5ujsv.jpg Скачать фильм Кардинал через торрент бесплантно в хорошем качестве Описание: В заброшенной шахте городка найдено тело тринадцатилетней Кейти Пайн, судя по уликам, погибшей в результате насильственной ... 5 10 1
Info! Золотая раздача, скачанное не засчитывается.
Торрент: Зарегистрирован [2017-06-04 13:25] · скачан: 93 раз
Статус: √ проверено
Размер: 4.86 GB
Как cкачать? Как скачать Кардинал через торрент | qTorrent

% Раздел Тема Автор DL S | L
Зарубежные сериалы [ 4 GB ] Кардинал / Cardinal / Сезон 3 / Серии 1-6 из 6 [2019 HDTV 720p] [MVO] killermax2013 Скачать
1 | 0
Зарубежные сериалы [ 6.68 GB ] Кардинал / Cardinal / Сезон 2 / Серии 1-6 из 6 [2018 HDTV 720p] [MVO] killermax2013 Скачать
1 | 0
Зарубежные сериалы [ 7.01 GB ] Кардинал / Cardinal / Сезон 1 / Серии 1-6 из 6 [2017 WEB-DL 720p] [MVO] killermax2013 Скачать
1 | 0
Зарубежные сериалы [ 3.44 GB ] Кардинал / Cardinal / Сезон 1 / Серии 1-6 из 6 [2017 HDTVRip] DVO [GoldTeam] bober100 Скачать
1 | 0
Зарубежные сериалы [ 4.63 GB ] Кардинал / Cardinal / Сезон: 1 / Серии: 1-6 из 6 [2017 HDTVRip 720p] Original + Rus Sub + Eng Sub batonchik Скачать
1 | 0

28-11-2019 20:33  

Отключить всю рекламу на сайте

    Дорогой пользователь! Огромная просьба, поблагодарите релизера, оцените раздачу и оставьте свои комментарий, если Вы скачали Кардинал через торрент бесплатно! Внесите свою лепту в развитие PiratBit!
    Комментировать посты могут только пользователи прошедшие не сложную регистрацию
    Показать сообщения:    

    Кардинал через торрент
    Скачать бесплатно Кардинал
    Кардинал скачать торрент
    Кардинал смотреть онлайн
    Cкачать фильм Кардинал бесплатно
    Кардинал скачать торрент в хорошем качестве
    Кардинал смотреть онлайн бесплатно в хорошем качестве


    Вы не можете начинать темы
    Вы не можете отвечать на сообщения
    Вы не можете редактировать свои сообщения
    Вы не можете удалять свои сообщения
    Вы не можете голосовать в опросах
    Вы не можете прикреплять файлы к сообщениям
    Вы можете скачивать файлы