Ссылка на приватное зеркало нашего сайта всего за 1$. Внимание количество ограничено!!!

2 сезон

iTunes

1 сезон

1

2 сезон

2 сезон

iTunes

1 сезон

RePack

30

Ultimate

ВАЖНО

ИГРА 18+

pack

RePack

MK11
pack

Забери бонус

RePack

jed

!!Акция!!

Alien_Rage

RePack

fifa19

RePack

Assassins Creed: Odyssey

RePack

NEED FOR SPEED™ PAYBACK

4 сезон

9 сезон

Бесстыжие 9 сезон

Все сериалы

все сериалы на PB.wtf

RePack

FAR CRY 5
  

День патриота / Patriots Day (Питер Берг) [2016, триллер, драма, история, Blu-Ray Remux 1080p] [AVO] (В.Назаров) pb.wtf

День патриота через торрент pb.wtf

Размер: 28.28 GB | Добавлен: 3 года 5 мес. назад | Торрент скачан:33 раза
Скачать  

04-06-2017 15:18 День патриота Скачать торрент  

День патриота / Patriots Day Год выпуска: 2016
Страна: США
Производство: CBS Films, Closest to the Hole Productions
Жанр: триллер, драма, история
Продолжительность: 02:13:09
Перевод: Авторский (одноголосый, закадровый) | В.Назаров
Субтитры: Английские

Режиссер: Питер Берг
Авторы сценария: Питер Берг, Мэтт Кук, Джошуа Зитумер

В ролях: Марк Уолберг, Дикки Эклунд мл., Майкл Маршан, Джон Гудман, Кристофер О’Ши, Рэйчел Броснахэн, Джейк Пикинг, Лана Кондор

Описание: Взгляд на бостонскую трагедию 2013 года глазами комиссара полиции Эда Дэвиса. Два взрыва на марафонском забеге оглушили мировую общественность, но не Эда и его коллег, которые разворачивают розыск террористов по горячим следам...

Бюджет: $45 000 000
Дата премьеры (мир): 17 ноября 2016



Релиз -
Качество: Blu-Ray Remux (1080p)
Формат: MKV
Видео кодек: AVC
Аудио кодек: DTS
Видео: MPEG-4 AVC, 22 Mбит/с, 1920x1080, 23.976 кадр/с
Аудио: № 1: Русский (48.0 kHz, DTS-HD MA, 8 ch, 4304 кбит/с) - Авторский (Вадим Назаров)
Аудио: № 2: Английский (48.0 kHz, DTS X, 4304 кбит/с)
Общее
Формат : Matroska
Версия формата : Version 4 / Version 2
Размер файла : 28,3 Гбайт
Продолжительность : 2 ч. 13 м.
Режим общего битрейта : Переменный
Общий поток : 30,4 Мбит/сек
Название фильма : Patriots Day (2016)
Программа кодирования : mkvmerge v11.0.0 ('Alive') 64bit
Библиотека кодирования : libebml v1.3.4 + libmatroska v1.4.5

Видео
Идентификатор : 1
Формат : AVC
Формат/Информация : Advanced Video Codec
Профиль формата : High@L4.1
Параметр CABAC формата : Да
Параметр ReFrames формата : 4 кадра
Идентификатор кодека : V_MPEG4/ISO/AVC
Продолжительность : 2 ч. 13 м.
Вид битрейта : Переменный
Битрейт : 22,0 Мбит/сек
Максимальный битрейт : 35,0 Мбит/сек
Ширина : 1920 пикселей
Высота : 1080 пикселей
Соотношение сторон : 16:9
Режим частоты кадров : Постоянный
Частота кадров : 23,976 (24000/1001) кадра/сек
Стандарт вещания : NTSC
Цветовое пространство : YUV
Субдискретизация насыщенности : 4:2:0
Битовая глубина : 8 бит
Тип развёртки : Прогрессивная
Бит/(Пиксели*Кадры) : 0.442
Размер потока : 20,5 Гбайт (72%)
Заголовок : Patriots Day (2016)
Язык : English
Default : Да
Forced : Нет
Цветовой диапазон : Limited
Основные цвета : BT.709
Характеристики трансфера : BT.709
Коэффициенты матрицы : BT.709

Аудио #1
Идентификатор : 2
Формат : DTS
Формат/Информация : Digital Theater Systems
Профиль формата : MA / ES Matrix / Core
Режим : 16
Параметр Endianness формата : Big
Идентификатор кодека : A_DTS
Продолжительность : 2 ч. 13 м.
Вид битрейта : Переменный / Постоянный / Постоянный
Битрейт : 4057 Кбит/сек / 1509 Кбит/сек / 1509 Кбит/сек
Каналы : 8 каналов / 7 каналов / 6 каналов
Расположение каналов : Front: L C R, Side: L R, Back: L R, LFE / Front: L C R, Side: L R, Back: C, LFE / Front: L C R, Side: L R, LFE
Частота : 48,0 КГц
Частота кадров : 93,750 кадра/сек (512 spf)
Битовая глубина : 24 бит
Метод сжатия : Без потерь / Lossy / Lossy
Размер потока : 3,77 Гбайт (13%)
Заголовок : AVO Вадим Назаров
Язык : Russian
Default : Да
Forced : Нет

Аудио #2
Идентификатор : 3
Формат : DTS
Формат/Информация : Digital Theater Systems
Профиль формата : X / MA / Core
Режим : 16
Параметр Endianness формата : Big
Идентификатор кодека : A_DTS
Продолжительность : 2 ч. 13 м.
Вид битрейта : Переменный / Переменный / Постоянный
Битрейт : 4304 Кбит/сек / 4304 Кбит/сек / 1509 Кбит/сек
Каналы : Object Based / 8 каналов / 6 каналов
Расположение каналов : Object Based / Front: L C R, Side: L R, Back: L R, LFE / Front: L C R, Side: L R, LFE
Частота : / 48,0 КГц / 48,0 КГц
Частота кадров : 93,750 кадра/сек (512 spf)
Битовая глубина : / 24 бит / 24 бит
Метод сжатия : / Lossless / Lossy
Размер потока : 4,00 Гбайт (14%)
Заголовок : Original
Язык : English
Default : Нет
Forced : Нет

Текст
Идентификатор : 4
Формат : PGS
Идентификатор кодека : S_HDMV/PGS
Идентификатор кодека/Информация : Picture based subtitle format used on BDs/HD-DVDs
Продолжительность : 2 ч. 12 м.
Битрейт : 43,9 Кбит/сек
ElementCount : 4050
Размер потока : 41,6 Мбайт (0%)
Заголовок : SDH
Язык : English
Default : Нет
Forced : Нет

Меню
00:00:00.000 : en:Chapter 01
00:08:30.510 : en:Chapter 02
00:17:48.067 : en:Chapter 03
00:24:56.328 : en:Chapter 04
00:32:35.953 : en:Chapter 05
00:41:44.502 : en:Chapter 06
00:49:23.001 : en:Chapter 07
00:58:35.512 : en:Chapter 08
01:07:10.026 : en:Chapter 09
01:19:05.157 : en:Chapter 10
01:24:20.055 : en:Chapter 11
01:33:48.622 : en:Chapter 12
01:45:17.311 : en:Chapter 13
01:50:24.618 : en:Chapter 14
01:57:57.070 : en:Chapter 15
02:05:25.518 : en:Chapter 16
02:13:07.980 : en:Chapter 17

Цитата:

За появление перевода Вадима Назарова благодарим пользователей e180: литти_07, luka69, 2vova2, Nadoelo, сhontvari, SokolF, xerman13, DIEnis82, uchitel538, pestel, stevnin, GaryH, tekst11.

pb.wtf



Скачать День патриота через торрент http://img11.lostpic.net/2017/03/15/040c3bacaca5dd6330dea4c3522bd8cc.png Скачать фильм День патриота через торрент бесплантно в хорошем качестве Описание: Взгляд на бостонскую трагедию 2013 года глазами комиссара полиции Эда Дэвиса. Два взрыва на марафонском забеге оглушили мировую ... 9.5 10 4
Info! Золотая раздача, скачанное не засчитывается.
Торрент: Зарегистрирован [2017-06-04 15:18] · скачан: 33 раз
Статус: √ проверено
Размер: 28.28 GB
Как cкачать? Как скачать День патриота через торрент | qTorrent

% Раздел Тема Автор DL S | L
Ultra HD (UHD: 2K, 4K, 8K) — видео сверхвысокой чёткости [ 80.99 GB ] День патриота / Patriots Day [2016 история UHD BDRemux 2160p] 2xAVO+3xMVO bober100 Скачать
1 | 0
Фильмы [HD 720p, 1080p] (Хороший звук DUB, MVO) [ 9.65 GB ] День патриота / Patriots Day [2016 история BDRip 720p] 2xAVO [Назаров Яроцкий] +MVO [СВ Студия] bober100 Скачать
1 | 0
Фильмы [HD 720p, 1080p] (Хороший звук DUB, MVO) [ 19.37 GB ] День патриота / Patriots Day [2016 история BDRip 1080p] 2xAVO [Назаров Яроцкий] +MVO [СВ Студия] bober100 Скачать
1 | 0
Фильмы 2016 [DVDrip, WEB-DLRip, HDrip] (DUB, MVO) [ 2.19 GB ] День патриота / Patriots Day [2016 история BDRip] [MVO] killermax2013 Скачать
1 | 0
Фильмы с авторской озвучкой [ 1.46 GB ] День патриота / Patriots Day [2016 история BDRip] [AVO] killermax2013 Скачать
1 | 0

28-11-2019 20:33  

Отключить всю рекламу на сайте

    Дорогой пользователь! Огромная просьба, поблагодарите релизера, оцените раздачу и оставьте свои комментарий, если Вы скачали День патриота через торрент бесплатно! Внесите свою лепту в развитие PiratBit!
    Комментировать посты могут только пользователи прошедшие не сложную регистрацию
    Показать сообщения:    

    День патриота через торрент
    Скачать бесплатно День патриота
    День патриота скачать торрент
    День патриота смотреть онлайн
    Cкачать фильм День патриота бесплатно
    День патриота скачать торрент в хорошем качестве
    День патриота смотреть онлайн бесплатно в хорошем качестве


    Вы не можете начинать темы
    Вы не можете отвечать на сообщения
    Вы не можете редактировать свои сообщения
    Вы не можете удалять свои сообщения
    Вы не можете голосовать в опросах
    Вы не можете прикреплять файлы к сообщениям
    Вы можете скачивать файлы