Ссылка на приватное зеркало нашего сайта всего за 1$. Внимание количество ограничено!!!

2 сезон

iTunes

1 сезон

1

2 сезон

2 сезон

iTunes

1 сезон

RePack

30

Ultimate

ВАЖНО

ИГРА 18+

pack

RePack

MK11
pack

Забери бонус

RePack

jed

!!Акция!!

Alien_Rage

RePack

fifa19

RePack

Assassins Creed: Odyssey

RePack

NEED FOR SPEED™ PAYBACK

4 сезон

9 сезон

Бесстыжие 9 сезон

Все сериалы

все сериалы на PB.wtf

RePack

FAR CRY 5
  

Однажды в Германии / Es war einmal in Deutschland... (Сэм Гарбарски) [2017, драма, комедия, военный, WEB-DL 1080p] MVO [iTunes] pb.wtf

Однажды в Германии через торрент pb.wtf

Размер: 4.03 GB | Добавлен: 3 года 5 мес. назад | Торрент скачан:174 раза
Скачать  

04-06-2017 23:43 Однажды в Германии Скачать торрент  

Однажды в Германии / Es war einmal in Deutschland...

Год выпуска: 2017
Страна: Германия, Люксембург, Бельгия
Жанр: драма, комедия, военный

Продолжительность: 01:42:07
Перевод: Профессиональный многоголосый [iTunes]
Режиссер: Сэм Гарбарски
В ролях:

Мориц Бляйбтрой (David Bermann), Антье Трауэ (Special Agent Sara Simon), Тим Сейфи (Fajnbrot), Марк Иванир (Holzmann), Анатоль Таубман (Fränkel), Ганс Лёв (Verständig), Паль Мачаи (Szoros), Вацлав Якоубек (Krautberg), Джинн Вернер (Elsa), Йоахим Пауль Ассбёк (Kleinschmitt), Йоэль Басман (Lubliner), Джефф Баррелл (Officer)
Описание:
Франкфурт, 1946 год. Предприимчивый Давид Берманн и шестеро его друзей избежали ужасов нацистского режима и теперь мечтают эмигрировать в Америку. Когда заветная мечта вот-вот станет явью, прошлое Давида привлекает внимание бескомпромиссной Сары Саймон, представителя американских войск в Германии. Она подозревает Берманна в сотрудничестве с нацистским режимом и всеми силами пытается вывести его на чистую воду. Но даже «железная» женщина не в силах устоять перед его шармом...
Рейтинг:

Качество: WEB-DL 1080p
Формат: MKV
Видео: AVC, 1920x1080 (16:9), 5154 kbps, 24 fps, 0,104 bpp
Аудио: русский / AC3 / 2.0 / 48 kHz / 384 kbps / |MVO|
Навигация по главам: есть
General
Unique ID : 180778854640551114826649080778324319924 (0x8800BDAEAA3DD221BE16BC1DA9761EB4)
Complete name : E:\0dHazhdy.B.GePmaHii.2O17.P.WEB-DL.1O8OP.mkv
Format : Matroska
Format version : Version 2
File size : 4.03 GiB
Duration : 1 h 42 min
Overall bit rate : 5 651 kb/s
Encoded date : UTC 2017-06-04 21:21:34
Writing application : mkvmerge v8.3.0 ('Over the Horizon') 64bit
Writing library : libebml v1.3.1 + libmatroska v1.4.2

Video
ID : 1
Format : AVC
Format/Info : Advanced Video Codec
Format profile : High@L4
Format settings, CABAC : Yes
Format settings, ReFrames : 4 frames
Codec ID : V_MPEG4/ISO/AVC
Duration : 1 h 42 min
Bit rate : 5 154 kb/s
Width : 1 920 pixels
Height : 1 080 pixels
Display aspect ratio : 16:9
Frame rate mode : Constant
Frame rate : 24.000 FPS
Color space : YUV
Chroma subsampling : 4:2:0
Bit depth : 8 bits
Scan type : Progressive
Bits/(Pixel*Frame) : 0.104
Stream size : 3.68 GiB (91%)
Language : English
Default : Yes
Forced : No
Color range : Limited
Color primaries : BT.709
Transfer characteristics : BT.709
Matrix coefficients : BT.709

Audio
ID : 2
Format : AC-3
Format/Info : Audio Coding 3
Mode extension : CM (complete main)
Format settings, Endianness : Big
Codec ID : A_AC3
Duration : 1 h 42 min
Bit rate mode : Constant
Bit rate : 384 kb/s
Channel(s) : 2 channels
Channel positions : Front: L R
Sampling rate : 48.0 kHz
Frame rate : 31.250 FPS (1536 spf)
Compression mode : Lossy
Stream size : 280 MiB (7%)
Language : Russian
Default : Yes
Forced : No

Menu
00:00:00.000 : en:Глава 1
00:05:41.791 : en:Глава 2
00:14:49.457 : en:Глава 3
00:18:00.665 : en:Глава 4
00:24:55.956 : en:Глава 5
00:30:47.956 : en:Глава 6
00:36:09.914 : en:Глава 7
00:40:15.955 : en:Глава 8
00:48:19.371 : en:Глава 9
00:54:36.121 : en:Глава 10
01:01:32.454 : en:Глава 11
01:07:41.495 : en:Глава 12
01:13:45.286 : en:Глава 13
01:21:59.244 : en:Глава 14
01:29:12.660 : en:Глава 15
01:35:48.868 : en:Глава 16
pb.wtf



Скачать Однажды в Германии через торрент http://i3.imageban.ru/out/2017/06/05/17535136f8f53b1580eda1df01aadcb5.jpg Скачать фильм Однажды в Германии через торрент бесплантно в хорошем качестве Описание: Франкфурт, 1946 год. Предприимчивый Давид Берманн и шестеро его друзей избежали ужасов нацистского режима и теперь мечтают ... 8.7 10 6
Торрент: Зарегистрирован [2017-06-04 23:43] · скачан: 174 раз
Статус: T временная
Размер: 4.03 GB
Как cкачать? Как скачать Однажды в Германии через торрент | qTorrent

% Раздел Тема Автор DL S | L
T R.G. Resident & PiratVoice - Фильмы, Видео [ 1.87 GB ] Однажды в Германии / Es war einmal in Deutschland... [2017 военный WEB-DLRip-AVC от R.G. Resident] MVO -Lexx- Скачать
1 | 0
T Фильмы (WEB-DL 720p, 1080p) [ 3.23 GB ] Однажды в Германии / Es war einmal in Deutschland... [2017 военный WEB-DL 720p] MVO bober100 Скачать
1 | 0
T Фильмы 2017 [DVDrip, WEB-DLRip, HDrip] (DUB, MVO) [ 1.46 GB ] Однажды в Германии / Es war einmal in Deutschland... [2017 военный WEB-DLRip] [MVO] killermax2013 Скачать
1 | 0

28-11-2019 20:33  

Отключить всю рекламу на сайте

    Дорогой пользователь! Огромная просьба, поблагодарите релизера, оцените раздачу и оставьте свои комментарий, если Вы скачали Однажды в Германии через торрент бесплатно! Внесите свою лепту в развитие PiratBit!
    Комментировать посты могут только пользователи прошедшие не сложную регистрацию
    Показать сообщения:    

    Однажды в Германии через торрент
    Скачать бесплатно Однажды в Германии
    Однажды в Германии скачать торрент
    Однажды в Германии смотреть онлайн
    Cкачать фильм Однажды в Германии бесплатно
    Однажды в Германии скачать торрент в хорошем качестве
    Однажды в Германии смотреть онлайн бесплатно в хорошем качестве


    Вы не можете начинать темы
    Вы не можете отвечать на сообщения
    Вы не можете редактировать свои сообщения
    Вы не можете удалять свои сообщения
    Вы не можете голосовать в опросах
    Вы не можете прикреплять файлы к сообщениям
    Вы можете скачивать файлы