2 сезон

iTunes

1 сезон

1

iTunes

iTunes

iTunes

1 сезон

RePack

30

ИГРА 18+

pack

ВАЖНО

!!Акция!!

Alien_RageХит недели

RePack

MK11
pack

Забери бонус

RePack

jed

!!Акция!!

Alien_Rage

RePack

fifa19

RePack

Assassins Creed: Odyssey

RePack

NEED FOR SPEED™ PAYBACK

4 сезон

9 сезон

Бесстыжие 9 сезон

Все сериалы

все сериалы на PB.wtf

RePack

FAR CRY 5
  

Агент Джонни Инглиш / Johnny English (Питер Хауит) [2003, боевик, комедия, приключения, BDRip 1080p by msltel] DUB, AVO pb.wtf

Агент Джонни Инглиш через торрент pb.wtf

Размер: 10.86 GB | Добавлен: 3 года 4 мес. назад | Торрент скачан:152 раза
Скачать  

05-06-2017 08:09 Агент Джонни Инглиш Скачать торрент  

Название: Агент Джонни Инглиш
Оригинальное название: Johnny English
Год выпуска: 2003
Страна: Великобритания, Франция, США
Жанр: боевик, комедия, приключения
Продолжительность: 01:27:25
Перевод: дублированный, авторский

Режиссёр: Питер Хауит

В ролях: Роуэн Аткинсон, Натали Имбрулья, Бен Миллер, Джон Малкович, Тим Пиготт-Смит, Кевин МакНэлли, Оливер Форд Дэвис, Дуглас МакФерран, Таша ди Вашконселуш, Грег Уайз, Стив Николсон, Теренс Харви, Нина Янг, Роуленд Дэвис, Филиппа Фордхэм, Тим Беррингтон, Саймон Бернштейн, Мартин Лоутон, Невилл Филлипс, Такуя Матсумото, Питер Тенн, Сэм Бизли, Кевин Мур, Фарук Прути, Марк Дэнбьюри, Джек Рэймонд, Дженни Гэлловэй, Хэйли Экерт, Таня Дэвис, Крис Таррант, Джеймс Грин, Клив Грэхэм, Тревор МакДональд, Серена Лориэн, Клер Бекуив, Филип Харви, Питер Хауит, Норман Кэмпбелл Риис, Лоуренс

Описание: История самого некомпетентного и недалекого британского дипломата, какого только можно представить, которого ошибочно принимают за самого знаменитого и опасного шпиона Великобритании Джонни Инглиша. Из-за этой путаницы герой оказывается вовлечённым в смертельную схватку с авторами очередного дьявольского плана...



Качество: BDRip 1080p
Формат: MKV
Видео: MPEG-4 AVC, 14 Mбит/с, 1920x1040
Аудио 1: русский, DTS, 768 kbps, 6 ch, 48 kHz [дублированный]
Аудио 2: русский, DTS, 1509 kbps, 6 ch, 48 kHz [авторский, Владимир Королёв]
Аудио 3: английский, DTS, 1509 kbps, 6 ch, 48 kHz [оригинал]
Субтитры 1: русские (вариант 1)
Субтитры 2: русские (вариант 2)
Субтитры 3: английские
Общее
Уникальный идентификатор : 200033296508152974599994428332530455421 (0x967D02F5B96763AEABA7CE1662CBD37D)
Полное имя : D:\Video\Агент Джонни Инглиш.2003.BDRip.1080p by msltel.mkv
Формат : Matroska
Версия формата : Version 4 / Version 2
Размер файла : 10,9 Гбайт
Продолжительность : 1 ч. 27 м.
Общий поток : 17,8 Мбит/сек
Название фильма : Rip by msltel
Дата кодирования : UTC 2017-06-05 05:57:21
Программа кодирования : mkvmerge v8.2.0 ('World of Adventure') 64bit
Библиотека кодирования : libebml v1.3.1 + libmatroska v1.4.2

Видео
Идентификатор : 1
Формат : AVC
Формат/Информация : Advanced Video Codec
Профиль формата : High@L4.1
Параметр CABAC формата : Да
Параметр ReFrames формата : 4 кадра
Идентификатор кодека : V_MPEG4/ISO/AVC
Продолжительность : 1 ч. 27 м.
Битрейт : 14,0 Мбит/сек
Ширина : 1920 пикселей
Высота : 1040 пикселей
Соотношение сторон : 1,85:1
Режим частоты кадров : Постоянный
Частота кадров : 23,976 (24000/1001) кадра/сек
Цветовое пространство : YUV
Субдискретизация насыщенности : 4:2:0
Битовая глубина : 8 бит
Тип развёртки : Прогрессивная
Бит/(Пиксели*Кадры) : 0.292
Размер потока : 8,55 Гбайт (79%)
Библиотека кодирования : x264 core 146 r2538 121396c
Настройки программы : cabac=1 / ref=4 / deblock=1:-3:-2 / analyse=0x3:0x113 / me=umh / subme=11 / psy=1 / psy_rd=1.00:0.15 / mixed_ref=1 / me_range=32 / chroma_me=1 / trellis=2 / 8x8dct=1 / cqm=0 / deadzone=21,11 / fast_pskip=0 / chroma_qp_offset=-3 / threads=6 / lookahead_threads=1 / sliced_threads=0 / nr=0 / decimate=1 / interlaced=0 / bluray_compat=0 / constrained_intra=0 / bframes=9 / b_pyramid=2 / b_adapt=2 / b_bias=0 / direct=1 / weightb=1 / open_gop=0 / weightp=2 / keyint=230 / keyint_min=23 / scenecut=40 / intra_refresh=0 / rc_lookahead=40 / rc=crf / mbtree=0 / crf=19.2 / qcomp=0.60 / qpmin=0 / qpmax=69 / qpstep=4 / vbv_maxrate=62500 / vbv_bufsize=78125 / crf_max=0.0 / nal_hrd=none / filler=0 / ip_ratio=1.40 / pb_ratio=1.30 / aq=1:1.00
Язык : English
Default : Да
Forced : Нет

Аудио #1
Идентификатор : 2
Формат : DTS
Формат/Информация : Digital Theater Systems
Режим : 16
Параметр Endianness формата : Big
Идентификатор кодека : A_DTS
Продолжительность : 1 ч. 27 м.
Вид битрейта : Постоянный
Битрейт : 768 Кбит/сек
Каналы : 6 каналов
Расположение каналов : Front: L C R, Side: L R, LFE
Частота : 48,0 КГц
Частота кадров : 93,750 кадра/сек (512 spf)
Битовая глубина : 24 бит
Метод сжатия : С потерями
Размер потока : 480 Мбайт (4%)
Заголовок : DUB
Язык : Russian
Default : Да
Forced : Нет

Аудио #2
Идентификатор : 3
Формат : DTS
Формат/Информация : Digital Theater Systems
Режим : 16
Параметр Endianness формата : Big
Идентификатор кодека : A_DTS
Продолжительность : 1 ч. 27 м.
Вид битрейта : Постоянный
Битрейт : 1509 Кбит/сек
Каналы : 6 каналов
Расположение каналов : Front: L C R, Side: L R, LFE
Частота : 48,0 КГц
Частота кадров : 93,750 кадра/сек (512 spf)
Битовая глубина : 24 бит
Метод сжатия : С потерями
Размер потока : 944 Мбайт (8%)
Заголовок : AVO (Владимир Королёв)
Язык : Russian
Default : Нет
Forced : Нет

Аудио #3
Идентификатор : 4
Формат : DTS
Формат/Информация : Digital Theater Systems
Режим : 16
Параметр Endianness формата : Big
Идентификатор кодека : A_DTS
Продолжительность : 1 ч. 27 м.
Вид битрейта : Постоянный
Битрейт : 1509 Кбит/сек
Каналы : 6 каналов
Расположение каналов : Front: L C R, Side: L R, LFE
Частота : 48,0 КГц
Частота кадров : 93,750 кадра/сек (512 spf)
Битовая глубина : 24 бит
Метод сжатия : С потерями
Размер потока : 944 Мбайт (8%)
Заголовок : original
Язык : English
Default : Нет
Forced : Нет

Текст #1
Идентификатор : 5
Формат : UTF-8
Идентификатор кодека : S_TEXT/UTF8
Идентификатор кодека/Информация : UTF-8 Plain Text
Продолжительность : 1 ч. 21 м.
Битрейт : 86 бит/сек
ElementCount : 883
Размер потока : 51,9 Кбайт (0%)
Заголовок : русские (вариант 1)
Язык : Russian
Default : Нет
Forced : Нет

Текст #2
Идентификатор : 6
Формат : UTF-8
Идентификатор кодека : S_TEXT/UTF8
Идентификатор кодека/Информация : UTF-8 Plain Text
Продолжительность : 1 ч. 23 м.
Битрейт : 90 бит/сек
ElementCount : 904
Размер потока : 55,0 Кбайт (0%)
Заголовок : русские (вариант 2)
Язык : Russian
Default : Нет
Forced : Нет

Текст #3
Идентификатор : 7
Формат : UTF-8
Идентификатор кодека : S_TEXT/UTF8
Идентификатор кодека/Информация : UTF-8 Plain Text
Продолжительность : 1 ч. 24 м.
Битрейт : 79 бит/сек
ElementCount : 1209
Размер потока : 49,2 Кбайт (0%)
Заголовок : английские
Язык : English
Default : Нет
Forced : Нет
pb.wtf



Скачать Агент Джонни Инглиш через торрент http://s010.radikal.ru/i312/1706/12/e7fcc5c87a93.jpg Скачать фильм Агент Джонни Инглиш через торрент бесплантно в хорошем качестве Описание: История самого некомпетентного и недалекого британского дипломата, какого только можно представить, которого ошибочно принимают ... 9.9 10 7
Info! Золотая раздача, скачанное не засчитывается.
Торрент: Зарегистрирован [2017-06-05 08:09] · скачан: 152 раз
Статус: √ проверено
Размер: 10.86 GB
Как cкачать? Как скачать Агент Джонни Инглиш через торрент | qTorrent

% Раздел Тема Автор DL S | L
Фильмы [HD 720p, 1080p] (Хороший звук DUB, MVO) [ 4.17 GB ] Агент Джонни Инглиш / Johnny English [2003 BDRip 720p by msltel] DUB AVO msltel Скачать
3 | 0

28-11-2019 20:33  

Отключить всю рекламу на сайте

17-11-2018 18:16 Агент Джонни Инглиш Скачать торрент  

скорость плизpb.wtf



    Дорогой пользователь! Огромная просьба, поблагодарите релизера, оцените раздачу и оставьте свои комментарий, если Вы скачали Агент Джонни Инглиш через торрент бесплатно! Внесите свою лепту в развитие PiratBit!
    Комментировать посты могут только пользователи прошедшие не сложную регистрацию
    Показать сообщения:    

    Агент Джонни Инглиш через торрент
    Скачать бесплатно Агент Джонни Инглиш
    Агент Джонни Инглиш скачать торрент
    Агент Джонни Инглиш смотреть онлайн
    Cкачать фильм Агент Джонни Инглиш бесплатно
    Агент Джонни Инглиш скачать торрент в хорошем качестве
    Агент Джонни Инглиш смотреть онлайн бесплатно в хорошем качестве


    Вы не можете начинать темы
    Вы не можете отвечать на сообщения
    Вы не можете редактировать свои сообщения
    Вы не можете удалять свои сообщения
    Вы не можете голосовать в опросах
    Вы не можете прикреплять файлы к сообщениям
    Вы можете скачивать файлы