Ссылка на приватное зеркало всего за 1$. Внимание количество ограничено!!!

iTunes

iTunes

iTunes

1

iTunes

iTunes

iTunes

iTunes

iTunes

30
pack

$ от Little Big

ВАЖНО

!!Акция!!

Alien_RageХит недели

RePack

Resident Evil 21

ИГРА 18+

pack

RePack

jed

!!Акция!!

Alien_Rage

RePack

fifa19

RePack

Assassins Creed: Odyssey

RePack

NEED FOR SPEED™ PAYBACK

4 сезон

9 сезон

Бесстыжие 9 сезон

Все сериалы

все сериалы на PB.wtf

RePack

FAR CRY 5
  

Однажды в Германии / Es war einmal in Deutschland... (Сэм Гарбарски) [2017, драма, комедия, военный, WEB-DL 720p] MVO [Лицензия / iTunes] pb.wtf

Однажды в Германии через торрент pb.wtf

Размер: 3.23 GB | Добавлен: 3 года 1 мес. назад | Торрент скачан:150 раз
Скачать  

05-06-2017 08:20 Однажды в Германии Скачать торрент  

Однажды в Германии / Es war einmal in Deutschland...
Год выпуска: 2017
Страна: Германия Люксембург Бельгия
Жанр: драма, комедия, военный
Продолжительность: 01:42:07
Перевод: Профессиональный многоголосый - [Лицензия / iTunes]
Субтитры: отсутствуют

Режиссер: Сэм Гарбарски

rating

В ролях:

Мориц Бляйбтрой, Антье Трауэ, Тим Сейфи, Марк Иванир, Анатоль Таубман, Ганс Лёв, Паль Мачаи, Вацлав Якоубек, Джинн Вернер

Описание:

Франкфурт, 1946 год. Предприимчивый Давид Берманн и шестеро его друзей избежали ужасов нацистского режима и теперь мечтают эмигрировать в Америку. Когда заветная мечта вот-вот станет явью, прошлое Давида привлекает внимание бескомпромиссной Сары Саймон, представителя американских войск в Германии. Она подозревает Берманна в сотрудничестве с нацистским режимом и всеми силами пытается вывести его на чистую воду. Но даже «железная» женщина не в силах устоять перед его шармом…

Качество: WEB-DL 720p
Формат: MKV
Видео кодек: H.264
Аудио кодек: AC3

Видео: 1280x720 (16:9), 24.000 fps, MPEG-4 AVC ~4 136 kbps avg
Аудио#1: 48 kHz, AC3 Dolby Digital, 2/0 (L,R) ch, ~384 kbps
скриншот   скриншот   скриншот  

Общее
Уникальный идентификатор : 207791142456800829526682599807279190157 (0x9C531E4BC41DF233B95EE8A63838508D)
Полное имя : D:\OdnagDi.V.Germanii.2O17.P.WEB-DL.72OP.mkv
Формат : Matroska
Версия формата : Version 2
Размер файла : 3,23 Гбайт
Продолжительность : 1 ч. 42 м.
Общий поток : 4522 Кбит/сек
Дата кодирования : UTC 2017-06-04 21:13:00
Программа кодирования : mkvmerge v8.3.0 ('Over the Horizon') 64bit
Библиотека кодирования : libebml v1.3.1 + libmatroska v1.4.2

Видео
Идентификатор : 1
Формат : AVC
Формат/Информация : Advanced Video Codec
Профиль формата : High@L3.1
Параметр CABAC формата : Нет
Параметр ReFrames формата : 2 кадра
Идентификатор кодека : V_MPEG4/ISO/AVC
Продолжительность : 1 ч. 42 м.
Битрейт : 4136 Кбит/сек
Ширина : 1280 пикселей
Высота : 720 пикселей
Соотношение сторон : 16:9
Режим частоты кадров : Постоянный
Частота кадров : 24,000 кадра/сек
Цветовое пространство : YUV
Субдискретизация насыщенности : 4:2:0
Битовая глубина : 8 бит
Тип развёртки : Прогрессивная
Бит/(Пиксели*Кадры) : 0.187
Размер потока : 2,95 Гбайт (91%)
Язык : English
Default : Да
Forced : Нет
Цветовой диапазон : Limited
Основные цвета : BT.709
Характеристики трансфера : BT.709
Коэффициенты матрицы : BT.709

Аудио
Идентификатор : 2
Формат : AC-3
Формат/Информация : Audio Coding 3
Расширение режима : CM (complete main)
Параметр Endianness формата : Big
Идентификатор кодека : A_AC3
Продолжительность : 1 ч. 42 м.
Вид битрейта : Постоянный
Битрейт : 384 Кбит/сек
Каналы : 2 канала
Расположение каналов : Front: L R
Частота : 48,0 КГц
Частота кадров : 31,250 кадров/сек (1536 spf)
Метод сжатия : С потерями
Размер потока : 280 Мбайт (8%)
Язык : Russian
Default : Да
Forced : Нет

Меню
00:00:00.000 : en:Глава 1
00:05:41.791 : en:Глава 2
00:14:49.457 : en:Глава 3
00:18:00.665 : en:Глава 4
00:24:55.956 : en:Глава 5
00:30:47.956 : en:Глава 6
00:36:09.914 : en:Глава 7
00:40:15.955 : en:Глава 8
00:48:19.371 : en:Глава 9
00:54:36.121 : en:Глава 10
01:01:32.454 : en:Глава 11
01:07:41.495 : en:Глава 12
01:13:45.286 : en:Глава 13
01:21:59.244 : en:Глава 14
01:29:12.660 : en:Глава 15
01:35:48.868 : en:Глава 16

pb.wtf



Скачать Однажды в Германии через торрент http://img11.lostpic.net/2017/06/05/fcc8dbf0393801764d0b53ae36cbdd5a.png Скачать фильм Однажды в Германии через торрент бесплантно в хорошем качестве Описание: Франкфурт, 1946 год. Предприимчивый Давид Берманн и шестеро его друзей избежали ужасов нацистского режима и теперь мечтают ... 10 10 8
Торрент: Зарегистрирован [2017-06-05 08:20] · скачан: 150 раз
Статус: T временная
Размер: 3.23 GB
Как cкачать? Как скачать Однажды в Германии через торрент | qTorrent

% Раздел Тема Автор DL S | L
T R.G. Resident & PiratVoice - Фильмы, Видео [ 1.87 GB ] Однажды в Германии / Es war einmal in Deutschland... [2017 военный WEB-DLRip-AVC от R.G. Resident] MVO -Lexx- Скачать
1 | 0
T Фильмы 2017 [DVDrip, WEB-DLRip, HDrip] (DUB, MVO) [ 1.46 GB ] Однажды в Германии / Es war einmal in Deutschland... [2017 военный WEB-DLRip] [MVO] killermax2013 Скачать
1 | 0
T Фильмы (WEB-DL 720p, 1080p) [ 4.03 GB ] Однажды в Германии / Es war einmal in Deutschland... [2017 военный WEB-DL 1080p] MVO -Lexx- Скачать
1 | 0

28-11-2019 20:33  

Отключить всю рекламу на сайте

    Дорогой пользователь! Огромная просьба, поблагодарите релизера, оцените раздачу и оставьте свои комментарий, если Вы скачали Однажды в Германии через торрент бесплатно! Внесите свою лепту в развитие PiratBit!
    Комментировать посты могут только пользователи прошедшие не сложную регистрацию
    Показать сообщения:    

    Однажды в Германии через торрент
    Скачать бесплатно Однажды в Германии
    Однажды в Германии скачать торрент
    Однажды в Германии смотреть онлайн
    Cкачать фильм Однажды в Германии бесплатно
    Однажды в Германии скачать торрент в хорошем качестве
    Однажды в Германии смотреть онлайн бесплатно в хорошем качестве


    Вы не можете начинать темы
    Вы не можете отвечать на сообщения
    Вы не можете редактировать свои сообщения
    Вы не можете удалять свои сообщения
    Вы не можете голосовать в опросах
    Вы не можете прикреплять файлы к сообщениям
    Вы можете скачивать файлы