>

5.6

iTunes

6.1

MVO

5.7

MVO

1

7.4

1 сезон

6.8

iTunes

7.2

1 сезон

13

6.7

1 сезон

8.3

RePack

30

Deluxe

pack

9.9

Лицензия

ВАЖНО

ИГРА 18+

pack

7.3

RePack

MK11

7.7

RePack

jed

7.8

RePack

fifa19

8.5

RePack

RDR2

RePack

NEED FOR SPEED™ PAYBACK

4 сезон

9 сезон

Бесстыжие 9 сезон

Все сериалы

все сериалы на PB.wtf

RePack

FAR CRY 5

Anonymous, доброй ночи, мы катастрофически не успеваем собрать деньги на оплату серверов, помогите нам пожалуйста 5,10,15р., для нас важна любая помощь . В качестве благодарности мы отключим Вам всю рекламу на сайте (укажите свой ник в строку Ваше имя)!

×
  
Magnet ссылка

Поединок (Владимир Петров) [1957, СССР, драма, DVDRip от AVP Studio] pb.wtf

Поединок через торрент pb.wtf

Размер: 1.46 GB | Добавлен: 4 года 3 мес. назад | Торрент скачан:3 раза
Смотреть онлайн Поединок | Скачать    Ребята, помогите собрать деньги на оплату серверов!!!

06-06-2017 08:49 Поединок Скачать торрент  

Поединок
Страна: СССР
Производство: Мосфильм

Жанр: драма
Год выпуска: 1957
Продолжительность: 01:38:30

Перевод: Не требуется
Cубтитры: нет
Оригинальная аудиодорожка: русский

Режиссер: Владимир Петров

В ролях:
Николай Комиссаров, Андрей Попов, Юрий Пузырёв, Михаил Названов, Ирина Скобцева, Лидия Сухаревская, Сергей Блинников, Николай Боголюбов, Владимир Белокуров, Евгений Евстигнеев, Александр Гумбург, Ной Авалиани, Павел Павленко, Леонид Пархоменко, Александр Лебедев, Раднэр Муратов, Лев Перфилов...
Об актёрах подробней

Описание:
Мелодрама по одноименной повести А. И. Куприна.
Конец 19-го века. Полк, расквартированный в небольшом городишке, скучает, пьянствует, томится в бездуховности. Подпоручик Ромашов влюбляется в жену капитана Шурочку. Общество судачит на эту тему. Возникает ссора между капитаном и подпоручиком. Шурочка уговаривает Ромашова провести имитацию дуэли, чтобы спасти “честь мужа”. Поединок заканчивается трагически - Николаев смертельно ранит Ромашова.

Источник: DVD9 R5
Качество видео: DVDRip
Формат видео: AVI

Видео: 688x512 (4:3), 25 fps, XviD ~ 1918 kbps avg, 0.218 bit/pixel
Аудио: 48 kHz, Dolby Digital AC3 2.0, 192 kbps

Раздача от:
Общее
Полное имя : Poedinok.1957.DVDRip_[New-team]_by_AVP_Studio.avi
Формат : AVI
Формат/Информация : Audio Video Interleave
Размер файла : 1,46 Гбайт
Продолжительность : 1 ч. 38 м.
Общий поток : 2120 Кбит/сек
Программа кодирования : VirtualDubMod 1.5.10.3 | www.virtualdub-fr.org || (build 2550/release)
Библиотека кодирования : VirtualDubMod build 2550/release

Видео
Идентификатор : 0
Формат : MPEG-4 Visual
Профиль формата : Advanced Simple@L5
Параметр BVOP формата : 1
Параметр QPel формата : Нет
Параметр GMC формата : Без точки перехода
Параметр матрицы формата : Выборочная
Идентификатор кодека : XVID
Идентификатор кодека/Подсказка : XviD
Продолжительность : 1 ч. 38 м.
Битрейт : 1918 Кбит/сек
Ширина : 688 пикселей
Высота : 512 пикселей
Соотношение сторон : 4:3
Частота кадров : 25,000 кадров/сек
Цветовое пространство : YUV
Субдискретизация насыщенности : 4:2:0
Битовая глубина : 8 бит
Тип развёртки : Прогрессивная
Метод сжатия : С потерями
Бит/(Пиксели*Кадры) : 0.218
Размер потока : 1,32 Гбайт (90%)
Библиотека кодирования : XviD 73

Аудио
Идентификатор : 1
Формат : AC-3
Формат/Информация : Audio Coding 3
Параметр Endianness формата : Big
Идентификатор кодека : 2000
Продолжительность : 1 ч. 38 м.
Вид битрейта : Постоянный
Битрейт : 192 Кбит/сек
Каналы : 2 канала
Расположение каналов : Front: L R
Частота : 48,0 КГц
Частота кадров : 31,250 кадров/сек (1536 spf)
Битовая глубина : 16 бит
Метод сжатия : С потерями
Размер потока : 135 Мбайт (9%)
Выравнивание : Разделение по промежуткам
Продолжительность промежутка : 40 мс. (1,00 видеокадр)
Время предзагрузки промежутка : 500 мс
pb.wtf



Скачать Поединок через торрент http://s018.radikal.ru/i524/1706/bf/cdaa71c192ad.png Скачать, смотреть онлайн Поединок бесплантно в хорошем качестве Описание:Мелодрама по одноименной повести А. И. Куприна.Конец 19-го века. Полк, расквартированный в небольшом городишке, скучает, ... 10 10 1
Info! Золотая раздача, скачанное не засчитывается.
Торрент: Зарегистрирован [2017-06-06 08:49] · скачан: 3 раз
Статус: √ проверено
Размер: 1.46 GB
Как cкачать? Как скачать Поединок через торрент | UTorrent

% Раздел Тема Автор DL S | L
Фантастика [ 468 MB ] Юрий Мори - Метро 2035: Эмбрион. Поединок [Пожилой Ксеноморф 2020 128 kbps MP3] bober100 Скачать
4 | 0
Фильмы [HD 720p, 1080p] (Хороший звук DUB, MVO) [ 6.75 GB ] Водитель / Поединок / The Driver [1978 BDRip 1080p] [MVO] + 2x[AVO] killermax2013 Скачать
1 | 0
Фильмы [HD 720p, 1080p] (Хороший звук DUB, MVO) [ 7.39 GB ] Водитель / Поединок / The Driver [1978 BDRip 720p] [MVO] + 2х [AVO] killermax2013 Скачать
1 | 0
Фильмы (WEB-DL 720p, 1080p) [ 4.42 GB ] Первый поединок / First Match [2018 WEB-DL 1080p] MVO [PIRATBIT] DEVI Скачать
1 | 0
T Фильмы (мультфильмы) cо спонсором показа (Новинки AVI/MKV) [ 3.47 GB ] Первый поединок / First Match [2018 WEB-DL 720p] MVO ["Синема УС"] bober100 Скачать
1 | 0
T Фильмы (мультфильмы) cо спонсором показа (Новинки AVI/MKV) [ 1.37 GB ] Первый поединок / First Match [2018 WEB-DLRip] MVO ["Синема УС"] bober100 Скачать
1 | 0
Кино СССР [ 1.46 GB ] Поединок [1957 СССР DVDRip-AVC от AVP Studio] AVP Studio Скачать
1 | 0

28-11-2019 20:33  

Отключить всю рекламу на сайте

    Дорогой пользователь! Огромная просьба, поблагодарите релизера, оцените раздачу и оставьте свои комментарий, если Вы скачали Поединок через торрент бесплатно!
    Комментировать посты могут только пользователи прошедшие не сложную регистрацию
    Показать сообщения:    

    Поединок через торрент
    Скачать бесплатно Поединок
    Поединок скачать торрент
    Поединок смотреть онлайн
    Cкачать фильм Поединок бесплатно
    Поединок скачать торрент в хорошем качестве
    Поединок смотреть онлайн бесплатно в хорошем качестве


    Вы не можете начинать темы
    Вы не можете отвечать на сообщения
    Вы не можете редактировать свои сообщения
    Вы не можете удалять свои сообщения
    Вы не можете голосовать в опросах
    Вы не можете прикреплять файлы к сообщениям
    Вы можете скачивать файлы