новый адрес пиратбит piratbit
Мега распродажа FORZA HORIZON 4 ULTIMATE+ВСЕ DLC+ОНЛАЙН всего за 499р. 349 руб. (супер цена). Внимание количество ограничено!!!

iTunes

1+1

iTunes

мы

iTunes

1

iTunes

Чернобыль

iTunes

Ральф против интернета

Лицензия

ПШазам

Лицензия

Игра престолов

Лицензия

30
pack

ВАЖНО

!!Акция!!

Alien_RageХит недели

RePack

Resident Evil 21

ИГРА 18+

pack

RePack

Metro:Exodus

!!Акция!!

Alien_Rage

RePack

fifa19

RePack

Assassins Creed: Odyssey

RePack

NEED FOR SPEED™ PAYBACK

3 сезон

9 сезон

Бесстыжие 9 сезон

Все сериалы

все сериалы на PB.wtf

RePack

FAR CRY 5
Ребята, катастрофически не хватает 1900р. для оплаты серверов за Октябрь (всвязи с блокировками трафик упал в 3 раза), 1-2р., выручайте.
  

После дождичка в четверг (Михаил Юзовский) [1986, сказка, комедия, приключения, семейный, DVDRip от AVP Studio] Original (rus) + Dub (Ger) pb.wtf

После дождичка в четверг через торрент pb.wtf

Размер: 749 MB | Добавлен: 2 года 5 мес. назад | Торрент скачан:15 раз
Скачать  

07-06-2017 07:16 После дождичка в четверг Скачать торрент  

После дождичка в четверг
Страна: СССР
Производство: Киностудия им. Горького

Жанр: сказка, комедия, приключения, семейный
Год выпуска: 1986
Продолжительность: 01:14:08

Перевод: Не требуется
Cубтитры: нет
Оригинальная аудиодорожка: русский

Режиссер: Михаил Юзовский

В ролях:
Владислав Толдыков, Алексей Войтюк, Геннадий Фролов (II), Олег Табаков, Валентина Талызина, Марина Зудина, Олег Анофриев, Марина Яковлева, Татьяна Пельтцер, Юрий Медведев, Семён Фарада, Владимир Фёдоров, Василий Кортуков...
Об актёрах подробней

Описание:
Однажды, после дождичка в четверг, у царя Авдея родился первенец. В тот же день родила мальчика и ключница Варвара, а в капусте был обнаружен новорожденный подкидыш. Всех троих нарекли Иванами - и Авдей приказал растить хлопцев вместе. Однако ключница сделала по-своему: положила в царскую люльку своего Ивана, а двух других отдала разбойникам. Пройдет двадцать лет, прежде чем сын царевича победит Кощея Бессмертного, найдет отца и освободит Жар-птицу, которая станет прекрасной девушкой. Кроме всевозможных приключений в фильме много песен и танцев.

Источник: DVD9 R2
Качество видео: DVDRip
Формат видео: AVI

Видео: 720x304 (2,35:1), 25 fps, XviD ~ 1011 kbps avg, 0.185 bit/pixel
Аудио: 48 kHz, Dolby Digital AC3 2.0, 192 kbps русский
Аудио: 48 kHz, Dolby Digital AC3 2.0, 192 kbps немецкий

Раздача от:
Общее
Полное имя : Posle.dozhdichka.v.chetverg.1986.DVDRip_[New-team]_by_AVP_Studio.avi
Формат : AVI
Формат/Информация : Audio Video Interleave
Размер файла : 749 Мбайт
Продолжительность : 1 ч. 14 м.
Общий поток : 1412 Кбит/сек

Видео
Идентификатор : 0
Формат : MPEG-4 Visual
Профиль формата : Advanced Simple@L5
Параметр BVOP формата : 1
Параметр QPel формата : Нет
Параметр GMC формата : Без точки перехода
Параметр матрицы формата : Выборочная
Идентификатор кодека : XVID
Идентификатор кодека/Подсказка : XviD
Продолжительность : 1 ч. 14 м.
Битрейт : 1011 Кбит/сек
Ширина : 720 пикселей
Высота : 304 пикселя
Соотношение сторон : 2,35:1
Частота кадров : 25,000 кадров/сек
Цветовое пространство : YUV
Субдискретизация насыщенности : 4:2:0
Битовая глубина : 8 бит
Тип развёртки : Прогрессивная
Метод сжатия : С потерями
Бит/(Пиксели*Кадры) : 0.185
Размер потока : 536 Мбайт (72%)
Библиотека кодирования : XviD 73

Аудио #1
Идентификатор : 1
Формат : AC-3
Формат/Информация : Audio Coding 3
Параметр Endianness формата : Big
Идентификатор кодека : 2000
Продолжительность : 1 ч. 14 м.
Вид битрейта : Постоянный
Битрейт : 192 Кбит/сек
Каналы : 2 канала
Расположение каналов : Front: L R
Частота : 48,0 КГц
Частота кадров : 31,250 кадров/сек (1536 spf)
Битовая глубина : 16 бит
Метод сжатия : С потерями
Размер потока : 102 Мбайт (14%)
Выравнивание : Соединение по промежуткам
Продолжительность промежутка : 32 мс. (0,80 видеокадр)
Аудио #2
Идентификатор : 2
Формат : AC-3
Формат/Информация : Audio Coding 3
Параметр Endianness формата : Big
Идентификатор кодека : 2000
Продолжительность : 1 ч. 14 м.
Вид битрейта : Постоянный
Битрейт : 192 Кбит/сек
Каналы : 2 канала
Расположение каналов : Front: L R
Частота : 48,0 КГц
Частота кадров : 31,250 кадров/сек (1536 spf)
Битовая глубина : 16 бит
Метод сжатия : С потерями
Размер потока : 102 Мбайт (14%)
Выравнивание : Соединение по промежуткам
Продолжительность промежутка : 32 мс. (0,80 видеокадр)
pb.wtf



Скачать После дождичка в четверг через торрент http://s018.radikal.ru/i502/1706/26/fb83c946854d.png Скачать фильм После дождичка в четверг через торрент бесплантно в хорошем качестве Описание:Однажды, после дождичка в четверг, у царя Авдея родился первенец. В тот же день родила мальчика и ключница Варвара, а в капусте ... 10 10 1
Info! Золотая раздача, скачанное не засчитывается.
Торрент: Зарегистрирован [2017-06-07 07:16] · скачан: 15 раз
Статус: √ проверено
Размер: 749 MB
Как cкачать? Как скачать После дождичка в четверг через торрент | qTorrent

% Раздел Тема Автор DL S | L
Кино СССР [ 1.09 GB ] После дождичка в четверг [1986 сказка DVDRip-AVC от AVP Studio] Original + Dub AVP Studio Скачать
1 | 0
Детские отечественные фильмы [ 1.37 GB ] После дождичка в четвер. [1985 Детское DVDRip Оригинал] DJERG Скачать
1 | 0
Кино СССР [ 700 MB ] После дождичка в четверг ... [1987 DVDRip] VORLKED Скачать
1 | 0


>> Регистрируемся здесь <<






Отзывы и комментарии о схеме читаем и пишем здесь: ---> Отзывы и комментарии о схеме

Новые благодарочки в телеграм довольных пользователей:
скриншот   скриншот   скриншот   скриншот   скриншот
    Дорогой пользователь! Огромная просьба, поблагодарите релизера, оцените раздачу и оставьте свои комментарий, если Вы скачали После дождичка в четверг через торрент бесплатно! Внесите свою лепту в развитие PiratBit!
    Комментировать посты могут только пользователи прошедшие не сложную регистрацию
    Показать сообщения:    

    После дождичка в четверг через торрент
    Скачать бесплатно После дождичка в четверг
    После дождичка в четверг скачать торрент
    После дождичка в четверг смотреть онлайн
    Cкачать фильм После дождичка в четверг бесплатно
    После дождичка в четверг скачать торрент в хорошем качестве
    После дождичка в четверг смотреть онлайн бесплатно в хорошем качестве


    Вы не можете начинать темы
    Вы не можете отвечать на сообщения
    Вы не можете редактировать свои сообщения
    Вы не можете удалять свои сообщения
    Вы не можете голосовать в опросах
    Вы не можете прикреплять файлы к сообщениям
    Вы можете скачивать файлы