Ссылка на приватное зеркало нашего сайта всего за 1$. Внимание количество ограничено!!!

2 сезон

iTunes

1 сезон

1

iTunes

iTunes

iTunes

1 сезон

RePack

30

ИГРА 18+

pack

ВАЖНО

!!Акция!!

Alien_RageХит недели

RePack

MK11
pack

Забери бонус

RePack

jed

!!Акция!!

Alien_Rage

RePack

fifa19

RePack

Assassins Creed: Odyssey

RePack

NEED FOR SPEED™ PAYBACK

4 сезон

9 сезон

Бесстыжие 9 сезон

Все сериалы

все сериалы на PB.wtf

RePack

FAR CRY 5
  

Криминальная фишка от Генри / Henry's Crime (Малькольм Венвилль) [2011, мелодрама, комедия, криминал, BDRip 1080p by msltel] DUB, AVO pb.wtf

Криминальная фишка от Генри через торрент pb.wtf

Размер: 12.52 GB | Добавлен: 3 года 4 мес. назад | Торрент скачан:57 раз
Скачать  

07-06-2017 08:05 Криминальная фишка от Генри Скачать торрент  

Название: Криминальная фишка от Генри
Оригинальное название: Henry's Crime
Год выпуска: 2011
Страна: США
Жанр: мелодрама, комедия, криминал
Продолжительность: 01:48:30
Перевод: дублированный, авторский

Режиссёр: Малькольм Венвилль

В ролях: Киану Ривз, Джеймс Каан, Вера Фармига, Петер Стормаре, Джуди Грир, Фишер Стивенс, Дэнни Хоч, Билл Дьюк, Карри Грэм, Дэвид Костабайл, Жули Ордон

Описание: Встречайте Генри, самого унылого парня в Америке. Он сидит в своей будке у дороги, взимая пошлину с проезжающих. Казалось, в его жизни ничто не может измениться. Но однажды сомнительный приятель попросил Генри подождать его у крыльца главного банка в Буффало. В результате - три года тюрьмы по ложному обвинению в ограблении. Но пройдёт время, и Генри вернётся к тому самому банку, чтобы взять своё...



Качество: BDRip 1080p
Формат: MKV
Видео: MPEG-4 AVC, 12.1 Mбит/с, 1920x800
Аудио 1: русский, DTS, 1509 kbps, 6 ch [дублированный]
Аудио 2: русский, DTS, 1509 kbps, 6 ch [авторский, Антон Киреев]
Аудио 3: английский, DTS, 1509 kbps, 6 ch, 48 kHz [оригинал]
Субтитры 1: русские
Субтитры 2: английские
Имеются неименованные главы/чаптеры.
Общее
Уникальный идентификатор : 229608575910965500373114183661921684571 (0xACBD00D0A254CC06A0197A1F8A32CC5B)
Полное имя : D:\Video\Криминальная фишка от Генри.2011.BDRip.1080p by msltel.mkv
Формат : Matroska
Версия формата : Version 4 / Version 2
Размер файла : 12,5 Гбайт
Продолжительность : 1 ч. 48 м.
Общий поток : 16,5 Мбит/сек
Название фильма : Rip by msltel
Дата кодирования : UTC 2017-06-06 02:00:56
Программа кодирования : mkvmerge v8.2.0 ('World of Adventure') 64bit
Библиотека кодирования : libebml v1.3.1 + libmatroska v1.4.2

Видео
Идентификатор : 1
Формат : AVC
Формат/Информация : Advanced Video Codec
Профиль формата : High@L4.1
Параметр CABAC формата : Да
Параметр ReFrames формата : 4 кадра
Идентификатор кодека : V_MPEG4/ISO/AVC
Продолжительность : 1 ч. 47 м.
Битрейт : 12,1 Мбит/сек
Ширина : 1920 пикселей
Высота : 800 пикселей
Соотношение сторон : 2,40:1
Режим частоты кадров : Постоянный
Частота кадров : 23,976 (24000/1001) кадра/сек
Цветовое пространство : YUV
Субдискретизация насыщенности : 4:2:0
Битовая глубина : 8 бит
Тип развёртки : Прогрессивная
Бит/(Пиксели*Кадры) : 0.328
Размер потока : 9,10 Гбайт (73%)
Библиотека кодирования : x264 core 146 r2538 121396c
Настройки программы : cabac=1 / ref=4 / deblock=1:-3:-2 / analyse=0x3:0x113 / me=umh / subme=11 / psy=1 / psy_rd=1.00:0.15 / mixed_ref=1 / me_range=32 / chroma_me=1 / trellis=2 / 8x8dct=1 / cqm=0 / deadzone=21,11 / fast_pskip=0 / chroma_qp_offset=-3 / threads=6 / lookahead_threads=1 / sliced_threads=0 / nr=0 / decimate=1 / interlaced=0 / bluray_compat=0 / constrained_intra=0 / bframes=7 / b_pyramid=2 / b_adapt=2 / b_bias=0 / direct=1 / weightb=1 / open_gop=0 / weightp=2 / keyint=230 / keyint_min=23 / scenecut=40 / intra_refresh=0 / rc_lookahead=40 / rc=crf / mbtree=0 / crf=17.8 / qcomp=0.60 / qpmin=0 / qpmax=69 / qpstep=4 / vbv_maxrate=62500 / vbv_bufsize=78125 / crf_max=0.0 / nal_hrd=none / filler=0 / ip_ratio=1.40 / pb_ratio=1.30 / aq=1:1.00
Язык : English
Default : Да
Forced : Нет

Аудио #1
Идентификатор : 2
Формат : DTS
Формат/Информация : Digital Theater Systems
Режим : 16
Параметр Endianness формата : Big
Идентификатор кодека : A_DTS
Продолжительность : 1 ч. 48 м.
Вид битрейта : Постоянный
Битрейт : 1509 Кбит/сек
Каналы : 6 каналов
Расположение каналов : Front: L C R, Side: L R, LFE
Частота : 48,0 КГц
Частота кадров : 93,750 кадра/сек (512 spf)
Битовая глубина : 16 бит
Метод сжатия : С потерями
Размер потока : 1,14 Гбайт (9%)
Заголовок : DUB
Язык : Russian
Default : Да
Forced : Нет

Аудио #2
Идентификатор : 3
Формат : DTS
Формат/Информация : Digital Theater Systems
Режим : 16
Параметр Endianness формата : Big
Идентификатор кодека : A_DTS
Продолжительность : 1 ч. 47 м.
Вид битрейта : Постоянный
Битрейт : 1509 Кбит/сек
Каналы : 6 каналов
Расположение каналов : Front: L C R, Side: L R, LFE
Частота : 48,0 КГц
Частота кадров : 93,750 кадра/сек (512 spf)
Битовая глубина : 16 бит
Метод сжатия : С потерями
Размер потока : 1,14 Гбайт (9%)
Заголовок : AVO (Антон Киреев)
Язык : Russian
Default : Нет
Forced : Нет

Аудио #3
Идентификатор : 4
Формат : DTS
Формат/Информация : Digital Theater Systems
Режим : 16
Параметр Endianness формата : Big
Идентификатор кодека : A_DTS
Продолжительность : 1 ч. 47 м.
Вид битрейта : Постоянный
Битрейт : 1509 Кбит/сек
Каналы : 6 каналов
Расположение каналов : Front: L C R, Side: L R, LFE
Частота : 48,0 КГц
Частота кадров : 93,750 кадра/сек (512 spf)
Битовая глубина : 24 бит
Метод сжатия : С потерями
Размер потока : 1,14 Гбайт (9%)
Заголовок : original
Язык : English
Default : Нет
Forced : Нет

Текст #1
Идентификатор : 5
Формат : UTF-8
Идентификатор кодека : S_TEXT/UTF8
Идентификатор кодека/Информация : UTF-8 Plain Text
Продолжительность : 1 ч. 42 м.
Битрейт : 88 бит/сек
ElementCount : 1399
Размер потока : 66,5 Кбайт (0%)
Заголовок : русские
Язык : Russian
Default : Нет
Forced : Нет

Текст #2
Идентификатор : 6
Формат : UTF-8
Идентификатор кодека : S_TEXT/UTF8
Идентификатор кодека/Информация : UTF-8 Plain Text
Продолжительность : 1 ч. 46 м.
Битрейт : 60 бит/сек
ElementCount : 1709
Размер потока : 47,0 Кбайт (0%)
Заголовок : английские
Язык : English
Default : Нет
Forced : Нет

Меню
00:00:00.000 : :Chapter 01
00:00:52.260 : :Chapter 02
00:01:39.516 : :Chapter 03
00:02:26.771 : :Chapter 04
00:03:14.027 : :Chapter 05
00:04:01.282 : :Chapter 06
00:04:48.538 : :Chapter 07
00:05:35.793 : :Chapter 08
00:06:23.049 : :Chapter 09
00:07:10.304 : :Chapter 10
00:07:57.560 : :Chapter 11
00:08:44.815 : :Chapter 12
00:09:32.071 : :Chapter 13
00:10:19.326 : :Chapter 14
00:11:06.582 : :Chapter 15
00:11:53.837 : :Chapter 16
00:12:41.093 : :Chapter 17
00:13:28.349 : :Chapter 18
00:14:15.604 : :Chapter 19
00:15:02.860 : :Chapter 20
00:15:50.115 : :Chapter 21
00:16:37.371 : :Chapter 22
00:17:24.626 : :Chapter 23
00:18:11.882 : :Chapter 24
00:18:59.137 : :Chapter 25
00:19:46.393 : :Chapter 26
00:20:33.648 : :Chapter 27
00:21:20.904 : :Chapter 28
00:22:08.159 : :Chapter 29
00:22:55.415 : :Chapter 30
00:23:42.670 : :Chapter 31
00:24:29.926 : :Chapter 32
00:25:17.182 : :Chapter 33
00:26:04.437 : :Chapter 34
00:26:51.693 : :Chapter 35
00:27:38.948 : :Chapter 36
00:28:26.204 : :Chapter 37
00:29:13.459 : :Chapter 38
00:30:00.715 : :Chapter 39
00:30:47.970 : :Chapter 40
00:31:35.226 : :Chapter 41
00:32:22.481 : :Chapter 42
00:33:09.737 : :Chapter 43
00:33:56.992 : :Chapter 44
00:34:44.248 : :Chapter 45
00:35:31.503 : :Chapter 46
00:36:18.759 : :Chapter 47
00:37:06.015 : :Chapter 48
00:37:53.270 : :Chapter 49
00:38:40.526 : :Chapter 50
00:39:27.781 : :Chapter 51
00:40:15.037 : :Chapter 52
00:41:02.292 : :Chapter 53
00:41:49.548 : :Chapter 54
00:42:36.803 : :Chapter 55
00:43:24.059 : :Chapter 56
00:44:11.314 : :Chapter 57
00:44:58.570 : :Chapter 58
00:45:45.825 : :Chapter 59
00:46:33.081 : :Chapter 60
00:47:20.336 : :Chapter 61
00:48:07.592 : :Chapter 62
00:48:54.848 : :Chapter 63
00:49:42.103 : :Chapter 64
00:50:29.359 : :Chapter 65
00:51:16.614 : :Chapter 66
00:52:03.870 : :Chapter 67
00:52:51.125 : :Chapter 68
00:53:38.381 : :Chapter 69
00:54:25.636 : :Chapter 70
00:55:12.892 : :Chapter 71
00:56:00.147 : :Chapter 72
00:56:47.403 : :Chapter 73
00:57:34.658 : :Chapter 74
00:58:21.914 : :Chapter 75
00:59:09.169 : :Chapter 76
00:59:56.425 : :Chapter 77
01:00:43.681 : :Chapter 78
01:01:30.936 : :Chapter 79
01:02:18.192 : :Chapter 80
01:03:05.447 : :Chapter 81
01:03:52.703 : :Chapter 82
01:04:39.958 : :Chapter 83
01:05:27.214 : :Chapter 84
01:06:14.469 : :Chapter 85
01:07:01.725 : :Chapter 86
01:07:48.980 : :Chapter 87
01:08:36.236 : :Chapter 88
01:09:23.491 : :Chapter 89
01:10:10.747 : :Chapter 90
01:10:58.002 : :Chapter 91
01:11:45.258 : :Chapter 92
01:12:32.514 : :Chapter 93
01:13:19.769 : :Chapter 94
01:14:07.025 : :Chapter 95
01:14:54.280 : :Chapter 96
01:15:41.536 : :Chapter 97
01:16:28.791 : :Chapter 98
01:17:16.047 : :Chapter 99
01:18:03.302 : :Chapter 100
pb.wtf



Скачать Криминальная фишка от Генри через торрент http://s018.radikal.ru/i527/1706/3a/f868b14f0fa6.jpg Скачать фильм Криминальная фишка от Генри через торрент бесплантно в хорошем качестве Описание: Встречайте Генри, самого унылого парня в Америке. Он сидит в своей будке у дороги, взимая пошлину с проезжающих. Казалось, в его ... 10 10 5
Info! Золотая раздача, скачанное не засчитывается.
Торрент: Зарегистрирован [2017-06-07 08:05] · скачан: 57 раз
Статус: √ проверено
Размер: 12.52 GB
Как cкачать? Как скачать Криминальная фишка от Генри через торрент | qTorrent

28-11-2019 20:33  

Отключить всю рекламу на сайте

    Дорогой пользователь! Огромная просьба, поблагодарите релизера, оцените раздачу и оставьте свои комментарий, если Вы скачали Криминальная фишка от Генри через торрент бесплатно! Внесите свою лепту в развитие PiratBit!
    Комментировать посты могут только пользователи прошедшие не сложную регистрацию
    Показать сообщения:    

    Криминальная фишка от Генри через торрент
    Скачать бесплатно Криминальная фишка от Генри
    Криминальная фишка от Генри скачать торрент
    Криминальная фишка от Генри смотреть онлайн
    Cкачать фильм Криминальная фишка от Генри бесплатно
    Криминальная фишка от Генри скачать торрент в хорошем качестве
    Криминальная фишка от Генри смотреть онлайн бесплатно в хорошем качестве


    Вы не можете начинать темы
    Вы не можете отвечать на сообщения
    Вы не можете редактировать свои сообщения
    Вы не можете удалять свои сообщения
    Вы не можете голосовать в опросах
    Вы не можете прикреплять файлы к сообщениям
    Вы можете скачивать файлы