2 сезон

iTunes

MVO

1

2 сезон

iTunes

iTunes

1 сезон

RePack

30

Ultimate

ВАЖНО

ИГРА 18+

pack

RePack

MK11
pack

Легкие деньги

RePack

jed

RePack

fifa19

RePack

RDR2

RePack

NEED FOR SPEED™ PAYBACK

4 сезон

9 сезон

Бесстыжие 9 сезон

Все сериалы

все сериалы на PB.wtf

RePack

FAR CRY 5

Anonymous, добрый вечер, мы не успеваем собрать деньги на оплату серверов за декабрь и январь, помогите нам пожалуйста в это трудное время. В качестве благодарности мы отключим Вам всю рекламу на сайте (укажите свой ник в строку Ваше имя)!

×
  
Magnet ссылка

Кто есть кто / Flic ou voyou / Cop or Hood (Жорж Лотнер) [1979 г., детектив, комедия, BDRip 720p / 60 FPS, Дубляж] от R.G. HD-Films pb.wtf

Кто есть кто через торрент pb.wtf

Качают: 1 [ 0 KB/s ]
Размер: 5.4 GB | Добавлен: 3 года 7 мес. назад | Торрент скачан:101 раз
Скачать  

07-06-2017 14:44 Кто есть кто Скачать торрент  

Кто есть кто / Flic ou voyou / Cop or Hood
Год выпуска: 1979
Страна: Франция
Жанр: детектив, комедия
Продолжительность: 01:47:05 ( сов. прокатная версия 01:23:06)
Перевод: Дубляж

Режиссер: Жорж Лотнер

В ролях: Жан-Поль Бельмондо, Мари Лафоре, Мишель Галабрю, Клод Брассе, Ж.-Ф. Бальмер, Тони Кендалл, Жорж Жере, Шарль Жерар, Жюли Жезекель, Мишель Боно, Катрин Лаше

Описание: В курортном городке на юге Франции убивают инспектора полиции. Для соблюдения благопристойного лица, гибель представляют от лица преступников, хотя полиция городка насквозь пронизана коррупцией и зависимостью от мафии.
В это время в город приезжает странный тип, который представляется Антонио Черутти, братом проститутки, убитой вместе с инспектором, и стравливает между собой крупнейших мафиози города. Вот только кем же он на самом деле является?


Доп. информация: в дубляже от "Мосфильма" есть вставки двухголосой озвучки на сцены вырезанные в СССР - 24 минуты

Качество: BDRip 720p / 60 FPS
Формат: MKV
Видео кодек: H.264
Аудио кодек: AC3
Видео: x264, 1280 x 768 ( 5:3 ), 6832 kbps, 60,000 fps, ( 0.116 bpp)
Аудио#1: Русский, AC-3, 48.0 KHz, 2 ch, 384 Kbps ( DUB "МосфильмCCCP" - Есть вставки закадрового перевода )

скриншот   скриншот   скриншот   скриншот   скриншот  
Автор рипа: slaventi-69
Общее
Уникальный идентификатор : 191804688754250003934354186333728065212 (0x904C3D46574B563F831CC0B4EAE0C6BC)
Полное имя : E:\Flic_ou_voyou.(1979).BDRip.720p.(60 Fps).mkv
Формат : Matroska
Версия формата : Version 4 / Version 2
Размер файла : 5,40 Гбайт
Продолжительность : 1 ч. 46 м.
Общий поток : 7220 Кбит/сек
Название фильма : Кто есть кто? / Полицейский или вор / Cop or Hood / Flic ou voyou (1979) BDRip 720p (60 Fps)
Дата кодирования : UTC 2017-06-07 14:18:21
Программа кодирования : mkvmerge v9.1.0 ('Little Earthquakes') 64bit
Библиотека кодирования : libebml v1.3.3 + libmatroska v1.4.4

Видео
Идентификатор : 1
Формат : AVC
Формат/Информация : Advanced Video Codec
Профиль формата : High@L4.1
Параметр CABAC формата : Да
Параметр ReFrames формата : 4 кадра
Идентификатор кодека : V_MPEG4/ISO/AVC
Продолжительность : 1 ч. 46 м.
Битрейт : 6832 Кбит/сек
Ширина : 1280 пикселей
Высота : 768 пикселей
Соотношение сторон : 5:3
Режим частоты кадров : Постоянный
Частота кадров : 60,000 кадров/сек
Цветовое пространство : YUV
Субдискретизация насыщенности : 4:2:0
Битовая глубина : 8 бит
Тип развёртки : Прогрессивная
Бит/(Пиксели*Кадры) : 0.116
Размер потока : 5,11 Гбайт (95%)
Заголовок : slaventi-69 ( R.G. HD-Films | 60 fps )
Библиотека кодирования : x264 core 146 r2538 121396c
Настройки программы : cabac=1 / ref=4 / deblock=1:-1:-1 / analyse=0x3:0x113 / me=umh / subme=9 / psy=1 / psy_rd=1.00:0.00 / mixed_ref=1 / me_range=24 / chroma_me=1 / trellis=2 / 8x8dct=1 / cqm=0 / deadzone=21,11 / fast_pskip=1 / chroma_qp_offset=-2 / threads=8 / lookahead_threads=1 / sliced_threads=0 / nr=0 / decimate=1 / interlaced=0 / bluray_compat=0 / constrained_intra=0 / bframes=4 / b_pyramid=2 / b_adapt=2 / b_bias=0 / direct=3 / weightb=1 / open_gop=0 / weightp=2 / keyint=250 / keyint_min=25 / scenecut=40 / intra_refresh=0 / rc_lookahead=50 / rc=crf / mbtree=1 / crf=17.5 / qcomp=0.60 / qpmin=0 / qpmax=69 / qpstep=4 / vbv_maxrate=14000 / vbv_bufsize=14000 / crf_max=0.0 / nal_hrd=none / filler=0 / ip_ratio=1.40 / aq=1:1.00
Язык : French
Default : Да
Forced : Нет

Аудио
Идентификатор : 2
Формат : AC-3
Формат/Информация : Audio Coding 3
Расширение режима : CM (complete main)
Параметр Endianness формата : Big
Идентификатор кодека : A_AC3
Продолжительность : 1 ч. 46 м.
Вид битрейта : Постоянный
Битрейт : 384 Кбит/сек
Каналы : 2 канала
Расположение каналов : Front: L R
Частота : 48,0 КГц
Частота кадров : 31,250 кадров/сек (1536 spf)
Метод сжатия : С потерями
Размер потока : 294 Мбайт (5%)
Заголовок : DUB
Язык : Russian
Default : Да
Forced : Нет

pb.wtf



Скачать Кто есть кто через торрент http://i32.fastpic.ru/big/2011/1028/05/a41bbae38b4b1c88c6b4564619f1a505.jpg Скачать фильм Кто есть кто через торрент бесплантно в хорошем качестве Описание: В курортном городке на юге Франции убивают инспектора полиции. Для соблюдения благопристойного лица, гибель представляют от лица ... 10 10 7
Info! Золотая раздача, скачанное не засчитывается.
Торрент: Зарегистрирован [2017-06-07 14:44] · скачан: 101 раз
Статус: √ проверено
Размер: 5.4 GB
Как cкачать? Как скачать Кто есть кто через торрент | UTorrent

28-11-2019 20:33  

Отключить всю рекламу на сайте

    Дорогой пользователь! Огромная просьба, поблагодарите релизера, оцените раздачу и оставьте свои комментарий, если Вы скачали Кто есть кто через торрент бесплатно! Внесите свою лепту в развитие PiratBit!
    Комментировать посты могут только пользователи прошедшие не сложную регистрацию
    Показать сообщения:    

    Кто есть кто через торрент
    Скачать бесплатно Кто есть кто
    Кто есть кто скачать торрент
    Кто есть кто смотреть онлайн
    Cкачать фильм Кто есть кто бесплатно
    Кто есть кто скачать торрент в хорошем качестве
    Кто есть кто смотреть онлайн бесплатно в хорошем качестве


    Вы не можете начинать темы
    Вы не можете отвечать на сообщения
    Вы не можете редактировать свои сообщения
    Вы не можете удалять свои сообщения
    Вы не можете голосовать в опросах
    Вы не можете прикреплять файлы к сообщениям
    Вы можете скачивать файлы