Всегда рабочее зеркало просто перед .vidak.icu напиши любое слово или цифру, Пример http://qed.vidak.icu

>

7.4

iTunes

7.4

2 сезон

9.4

1 сезон

1

7.4

2 сезон

7.2

iTunes

6.0

MVO

13

6.1

iTunes

8.3

Пиратка

30

ULTIMATE

pack

9.9

Лицензия

ВАЖНО

ИГРА 18+

pack

7.3

RePack

MK11

7.7

RePack

jed

7.8

RePack

fifa19

8.5

RePack

RDR2

RePack

NEED FOR SPEED™ PAYBACK

1 сезон

9 сезон

Бесстыжие 9 сезон

Все сериалы

все сериалы на PB.wtf

RePack

FAR CRY 5

Anonymous, доброй ночи, мы катастрофически не успеваем собрать деньги на оплату серверов, помогите нам пожалуйста 5,10,15р., для нас важна любая помощь . В качестве благодарности мы отключим Вам всю рекламу на сайте (укажите свой ник в строку Ваше имя)!

×
  
Magnet ссылка

Дарующий бессмертие / The Immortalizer (Джоэл Бендер ) [1989, ужасы, фантастика, HDTV 720p] Авторский (одноголосый) pb.wtf

Дарующий бессмертие через торрент pb.wtf

Размер: 2.6 GB | Добавлен: 4 года 7 мес. назад | Торрент скачан:6 раз
Смотреть онлайн Дарующий бессмертие | Скачать    Ребята, помогите собрать деньги на оплату серверов!!!

08-06-2017 07:24 Дарующий бессмертие Скачать торрент  

Дарующий бессмертие / The Immortalizer

Год выпуска: 1989
Страна: США
Жанр: ужасы, фантастика

Продолжительность: 01:32:17
Перевод: Авторский (одноголосый)
Режиссер: Джоэл Бендер
В ролях: Рон Рэй (Dr. Divine), Крис Кроун (Gregg), Кларк Линдсли (Dr. Price), Мелоди Паттерсон (Nurse Blaine), Стив Джемисон (Dr. Timmons), Greg Joujon-Roche (Darrell), Ребекка Армстронг (June), Синтия Чейз (Celia), Боб Верн (Lyle), Терри Миллер (Bandy), Брайан Дэвид Зоула (Bubba), Рэй Холлитт (Queenie)
Описание:
Сюжет фильма повествует о докторе с психическими отклонениями, который в своей клинике предлагает людям заменить их старые, уже одряхлевшие тела на новые, молодые и полные жизни.
Рейтинг:

MPAA: R - Лицам до 17 лет обязательно присутствие взрослого
Качество: HDTV 720p
Формат: MKV
Видео: AVC, 1280x720 (16:9), 3529 kbps, 25 fps, 0,153 bpp
Аудио №1: русский / AC3 / 2.0 / 48 kHz / 192 kbps / |AVO Сербин|
Аудио №2: русский / AC3 / 1 / 48 kHz / 128 kbps / |AVO Гаврилов|
Аудио №3: английский / AAC LC / 2.0 / 48 kHz / 192 kbps /

General
Unique ID : 211229018425930495809123826777968883012 (0x9EE93AAAF367F505B4BCEC1C66E83544)
Complete name : D:\Proba\The.Immortalizer.1989.720p.2xRus.Eng.mkv
Format : Matroska
Format version : Version 4 / Version 2
File size : 2.60 GiB
Duration : 1 h 32 min
Overall bit rate mode : Variable
Overall bit rate : 4 040 kb/s
Movie name : Immortalizer
Encoded date : UTC 2016-06-10 16:16:30
Writing application : mkvmerge v9.2.0 ('Photograph') 32bit
Writing library : libebml v1.3.3 + libmatroska v1.4.4

Video
ID : 1
Format : AVC
Format/Info : Advanced Video Codec
Format profile : High@L3.1
Format settings, CABAC : Yes
Format settings, ReFrames : 2 frames
Format settings, GOP : M=2, N=29
Codec ID : V_MPEG4/ISO/AVC
Duration : 1 h 32 min
Bit rate mode : Variable
Bit rate : 3 530 kb/s
Maximum bit rate : 4 000 kb/s
Width : 1 280 pixels
Height : 720 pixels
Display aspect ratio : 16:9
Frame rate mode : Constant
Frame rate : 25.000 FPS
Color space : YUV
Chroma subsampling : 4:2:0
Bit depth : 8 bits
Scan type : Progressive
Bits/(Pixel*Frame) : 0.153
Stream size : 2.27 GiB (87%)
Title : Immortalizer.720p
Default : No
Forced : No

Audio #1
ID : 2
Format : AC-3
Format/Info : Audio Coding 3
Mode extension : CM (complete main)
Format settings, Endianness : Big
Codec ID : A_AC3
Duration : 1 h 32 min
Bit rate mode : Constant
Bit rate : 192 kb/s
Channel(s) : 2 channels
Channel positions : Front: L R
Sampling rate : 48.0 kHz
Frame rate : 31.250 FPS (1536 spf)
Compression mode : Lossy
Stream size : 127 MiB (5%)
Title : Serbin AC3 2.0 192 kbps
Language : Russian
Default : No
Forced : No

Audio #2
ID : 3
Format : AC-3
Format/Info : Audio Coding 3
Mode extension : CM (complete main)
Format settings, Endianness : Big
Codec ID : A_AC3
Duration : 1 h 32 min
Bit rate mode : Constant
Bit rate : 128 kb/s
Channel(s) : 1 channel
Channel positions : Front: C
Sampling rate : 48.0 kHz
Frame rate : 31.250 FPS (1536 spf)
Compression mode : Lossy
Stream size : 84.3 MiB (3%)
Title : Gavrilov AC3 1.0 128 kbps
Language : Russian
Default : No
Forced : No

Audio #3
ID : 4
Format : AAC
Format/Info : Advanced Audio Codec
Format profile : LC
Codec ID : A_AAC
Duration : 1 h 32 min
Bit rate : 192 kb/s
Channel(s) : 2 channels
Channel positions : Front: L R
Sampling rate : 48.0 kHz
Frame rate : 46.875 FPS (1024 spf)
Compression mode : Lossy
Stream size : 127 MiB (5%)
Title : Original AAC-LC 2.0 192 kbps
Language : English
Default : No
Forced : No
pb.wtf



Скачать Дарующий бессмертие через торрент http://i2.imageban.ru/out/2017/06/08/dfc9571a43b4b688ddde729f40127543.jpg Скачать, смотреть онлайн Дарующий бессмертие бесплантно в хорошем качестве Описание: Сюжет фильма повествует о докторе с психическими отклонениями, который в своей клинике предлагает людям заменить их старые, уже ... 10 10 2
Торрент: Зарегистрирован [2017-06-08 07:24] · скачан: 6 раз
Статус: # сомнительно
Размер: 2.6 GB
Как cкачать? Как скачать Дарующий бессмертие через торрент | UTorrent

28-11-2019 20:33  

Отключить всю рекламу на сайте

    Дорогой пользователь! Огромная просьба, поблагодарите релизера, оцените раздачу и оставьте свои комментарий, если Вы скачали Дарующий бессмертие через торрент бесплатно!
    Комментировать посты могут только пользователи прошедшие не сложную регистрацию
    Показать сообщения:    

    Дарующий бессмертие через торрент
    Скачать бесплатно Дарующий бессмертие
    Дарующий бессмертие скачать торрент
    Дарующий бессмертие смотреть онлайн
    Cкачать фильм Дарующий бессмертие бесплатно
    Дарующий бессмертие скачать торрент в хорошем качестве
    Дарующий бессмертие смотреть онлайн бесплатно в хорошем качестве


    Вы не можете начинать темы
    Вы не можете отвечать на сообщения
    Вы не можете редактировать свои сообщения
    Вы не можете удалять свои сообщения
    Вы не можете голосовать в опросах
    Вы не можете прикреплять файлы к сообщениям
    Вы можете скачивать файлы