Ссылка на приватное зеркало нашего сайта всего за 1$. Внимание количество ограничено!!!

2 сезон

iTunes

1 сезон

1

iTunes

iTunes

iTunes

1 сезон

RePack

30

ИГРА 18+

pack

ВАЖНО

!!Акция!!

Alien_RageХит недели

RePack

MK11
pack

Забери бонус

RePack

jed

!!Акция!!

Alien_Rage

RePack

fifa19

RePack

Assassins Creed: Odyssey

RePack

NEED FOR SPEED™ PAYBACK

4 сезон

9 сезон

Бесстыжие 9 сезон

Все сериалы

все сериалы на PB.wtf

RePack

FAR CRY 5
  

Убей меня трижды / Kill Me Three Times (Крив Стендерс) [2014 г., триллер, криминал, BDRip 720p] MVO + VO pb.wtf

Убей меня трижды через торрент pb.wtf

Размер: 4.11 GB | Добавлен: 3 года 4 мес. назад | Торрент скачан:157 раз
Скачать  

08-06-2017 09:11 Убей меня трижды Скачать торрент  

Убей меня трижды / Kill Me Three Times
Год выпуска: 2014
Страна: США, Австралия
Жанр: триллер, криминал
Продолжительность: 01:30:22
Перевод: профессиональный многоголосый (iTunes), любительский одноголосый (PashaUp)
Субтитры: русские (notabenoid), английские

Режиссер: Крив Стендерс
В ролях: Саймон Пегг, Стив Ле Маркванд, Алиси Брага, Тереза Палмер, Салливан Степлтон, Люк Хемсворт, Каллэн Мулвей, Брайан Браун, Дэниэл Беренджер

rating

Описание: Чарли Вульф — наемный убийца, который ненавидит, когда в его дела вмешивается кто-нибудь посторонний. Однажды к нему обращается старый знакомый Джек Тейлор, который предлагает ему пятьдесят тысяч за убийство своей жены во время ее визита к стоматологу. Выследив жертву, Чарли готовится выполнить заказ, но вскоре замечает, как дантист и его медсестра-ассистентка грузят тело супруги Джека в багажник автомобиля. Киллер совершенно не ожидал такого поворота событий и начал слежку за своими конкурентами. Он уверен только в одном, что смерти этой женщины хочет не только Джек, но возвращать свой гонорар Чарли не намерен...

Качество: BDRip 720p
Формат: MKV
Видео кодек: H.264
Аудио кодек: AC3
Видео: AVC, 1280x536 (2.40:1), 23.976 fps ~ 4100 Kbps
Аудио#1: AC3, 48 KHz 6 ch ~ 384 Kb/s (профессиональный)
Аудио#2: AC3, 48 KHz 6 ch ~ 384 Kb/s (любительский)
Аудио#3: DTS, 48 KHz 6 ch ~ 1510 Kb/s (английский)

Общее
Уникальный идентификатор : 233020992152436251516157539880505825712 (0xAF4E35ECE0BE792A9BE74BBE67F1D9B0)
Полное имя : Q:\TorF\Kill.Me.Three.Times.2014.BDRip.720p.mkv
Формат : Matroska
Версия формата : Version 2
Размер файла : 4,11 Гбайт
Продолжительность : 1 ч. 30 м.
Общий поток : 6511 Кбит/сек
Название фильма : Kill.Me.Three.Times.2014.720p
Дата кодирования : UTC 2017-06-08 06:32:54
Программа кодирования : mkvmerge v5.4.0 ('Piper') built on Mar 10 2012 13:34:39
Библиотека кодирования : libebml v1.2.3 + libmatroska v1.3.0

Видео
Идентификатор : 1
Формат : AVC
Формат/Информация : Advanced Video Codec
Профиль формата : High@L4.1
Параметр CABAC формата : Да
Параметр ReFrames формата : 12 кадров
Идентификатор кодека : V_MPEG4/ISO/AVC
Продолжительность : 1 ч. 30 м.
Битрейт : 4104 Кбит/сек
Ширина : 1280 пикселей
Высота : 536 пикселей
Соотношение сторон : 2,40:1
Частота кадров : 23,976 кадра/сек
Цветовое пространство : YUV
Субдискретизация насыщенности : 4:2:0
Битовая глубина : 8 бит
Тип развёртки : Прогрессивная
Бит/(Пиксели*Кадры) : 0.249
Размер потока : 2,59 Гбайт (63%)
Библиотека кодирования : x264 core 142 r2431+42 c69a006 tMod [8-bit@all X86_64]
Настройки программы : cabac=1 / ref=12 / deblock=1:-3:-3 / analyse=0x3:0x133 / me=umh / subme=10 / psy=1 / fade_compensate=0.00 / psy_rd=1.10:0.00 / mixed_ref=1 / me_range=32 / chroma_me=1 / trellis=2 / 8x8dct=1 / cqm=0 / deadzone=21,11 / fast_pskip=0 / chroma_qp_offset=-2 / threads=6 / lookahead_threads=1 / sliced_threads=0 / nr=0 / decimate=0 / interlaced=0 / bluray_compat=0 / constrained_intra=0 / fgo=0 / bframes=8 / b_pyramid=2 / b_adapt=2 / b_bias=0 / direct=3 / weightb=1 / open_gop=0 / weightp=2 / keyint=250 / keyint_min=23 / scenecut=40 / intra_refresh=0 / rc=crf / mbtree=0 / crf=17.0000 / qcomp=0.60 / qpmin=0:0:0 / qpmax=69:69:69 / qpstep=4 / ip_ratio=1.40 / pb_ratio=1.30 / aq=4:1.00 / aq-sensitivity=10.00 / aq-factor=1.00:1.00:1.00 / aq2=0 / aq3=0
Язык : English
Default : Да
Forced : Нет

Аудио #1
Идентификатор : 2
Формат : AC-3
Формат/Информация : Audio Coding 3
Расширение режима : CM (complete main)
Идентификатор кодека : A_AC3
Продолжительность : 1 ч. 30 м.
Вид битрейта : Постоянный
Битрейт : 384 Кбит/сек
Каналы : 6 каналов
Расположение каналов : Front: L C R, Side: L R, LFE
Частота : 48,0 КГц
Битовая глубина : 16 бит
Метод сжатия : С потерями
Размер потока : 248 Мбайт (6%)
Заголовок : iTunes
Язык : Russian
Default : Да
Forced : Нет

Аудио #2
Идентификатор : 3
Формат : AC-3
Формат/Информация : Audio Coding 3
Расширение режима : CM (complete main)
Идентификатор кодека : A_AC3
Продолжительность : 1 ч. 30 м.
Вид битрейта : Постоянный
Битрейт : 384 Кбит/сек
Каналы : 2 канала
Расположение каналов : Front: L R
Частота : 48,0 КГц
Битовая глубина : 16 бит
Метод сжатия : С потерями
Размер потока : 248 Мбайт (6%)
Заголовок : PashaUp
Язык : Russian
Default : Нет
Forced : Нет

Аудио #3
Идентификатор : 4
Формат : DTS
Формат/Информация : Digital Theater Systems
Идентификатор кодека : A_DTS
Продолжительность : 1 ч. 30 м.
Вид битрейта : Постоянный
Битрейт : 1510 Кбит/сек
Каналы : 6 каналов
Расположение каналов : Front: L C R, Side: L R, LFE
Частота : 48,0 КГц
Битовая глубина : 24 бит
Метод сжатия : С потерями
Размер потока : 976 Мбайт (23%)
Заголовок : dts
Язык : English
Default : Нет
Forced : Нет

Текст #1
Идентификатор : 5
Формат : UTF-8
Идентификатор кодека : S_TEXT/UTF8
Идентификатор кодека/Информация : UTF-8 Plain Text
Заголовок : NotaBenoid
Язык : Russian
Default : Да
Forced : Нет

Текст #2
Идентификатор : 6
Формат : UTF-8
Идентификатор кодека : S_TEXT/UTF8
Идентификатор кодека/Информация : UTF-8 Plain Text
Язык : English
Default : Нет
Forced : Нет

Меню
00:00:00.000 : en:1
00:06:35.000 : en:2
00:11:32.000 : en:3
00:17:09.000 : en:4
00:23:18.000 : en:5
00:28:22.000 : en:6
00:34:02.000 : en:7
00:40:21.000 : en:8
00:48:11.000 : en:9
00:53:21.000 : en:10
00:59:42.000 : en:11
01:05:30.000 : en:12
01:10:54.000 : en:13
01:15:00.000 : en:14
01:20:00.000 : en:15
01:23:43.000 : en:16

pb.wtf



Скачать Убей меня трижды через торрент http://pic.kartinco.top/images/11/4fg29.jpg Скачать фильм Убей меня трижды через торрент бесплантно в хорошем качестве Описание: Чарли Вульф — наемный убийца, который ненавидит, когда в его дела вмешивается кто-нибудь посторонний. Однажды к нему обращается ... 9.8 10 5
Info! Золотая раздача, скачанное не засчитывается.
Торрент: Зарегистрирован [2017-06-08 09:11] · скачан: 157 раз
Статус: √ проверено
Размер: 4.11 GB
Как cкачать? Как скачать Убей меня трижды через торрент | qTorrent

% Раздел Тема Автор DL S | L
Фильмы (Blu-ray, BD-Remux, HDDVD) [ 20.22 GB ] Убей меня трижды / Kill Me Three Times [2014 BDRemux 1080p от NovaLan] MVO+VO Ворон Скачать
1 | 0
Фильмы 2014 [DVDrip, WEB-DLRip, HDrip] [ 2.13 GB ] Убей меня трижды / Kill Me Three Times [2014 BDRip-AVC] MVO potroks Скачать
1 | 0

28-11-2019 20:33  

Отключить всю рекламу на сайте

    Дорогой пользователь! Огромная просьба, поблагодарите релизера, оцените раздачу и оставьте свои комментарий, если Вы скачали Убей меня трижды через торрент бесплатно! Внесите свою лепту в развитие PiratBit!
    Комментировать посты могут только пользователи прошедшие не сложную регистрацию
    Показать сообщения:    

    Убей меня трижды через торрент
    Скачать бесплатно Убей меня трижды
    Убей меня трижды скачать торрент
    Убей меня трижды смотреть онлайн
    Cкачать фильм Убей меня трижды бесплатно
    Убей меня трижды скачать торрент в хорошем качестве
    Убей меня трижды смотреть онлайн бесплатно в хорошем качестве


    Вы не можете начинать темы
    Вы не можете отвечать на сообщения
    Вы не можете редактировать свои сообщения
    Вы не можете удалять свои сообщения
    Вы не можете голосовать в опросах
    Вы не можете прикреплять файлы к сообщениям
    Вы можете скачивать файлы