Ссылка на приватное зеркало нашего сайта всего за 1$. Внимание количество ограничено!!!

2 сезон

iTunes

1 сезон

1

2 сезон

2 сезон

iTunes

1 сезон

RePack

30

Новинка

ВАЖНО

ИГРА 18+

pack

RePack

MK11
pack

Забери бонус

RePack

jed

!!Акция!!

Alien_Rage

RePack

fifa19

RePack

Assassins Creed: Odyssey

RePack

NEED FOR SPEED™ PAYBACK

4 сезон

9 сезон

Бесстыжие 9 сезон

Все сериалы

все сериалы на PB.wtf

RePack

FAR CRY 5
  

Форсаж 8 / The Fate of the Furious (Ф. Гэри Грей) [2017, боевик, триллер, криминал, WEB-DL 1080p] DUB [iTunes] pb.wtf

Форсаж 8 через торрент pb.wtf

Раздают: 2 [ 0 KB/s ]
Размер: 5.03 GB | Добавлен: 3 года 5 мес. назад | Торрент скачан:6194 раза
Скачать  

08-06-2017 09:30 Форсаж 8 Скачать торрент  

Форсаж 8 / The Fate of the Furious
Год выпуска: 2017
Страна: США
Жанр: боевик, триллер, криминал
Продолжительность: 02:15:57
Перевод: Дубляж [iTunes]
Субтитры: русские (forced + full), английские (forced + SDH)

Режиссер: Ф. Гэри Грей

rating

В ролях:

Вин Дизель, Дуэйн Джонсон, Джейсон Стэйтем, Мишель Родригес, Тайриз Гибсон, Лудакрис, Н. Эммануэль, Курт Рассел, Скотт Иствуд

Описание:

Пристегните ремни — гонка продолжается. Гавана, Берлин, Нью-Йорк, для самой крутой команды в мире нет ничего невозможного, пока они вместе. Но когда на их пути окажется одна из самых красивых женщин на планете и по совместительству королева киберпреступности, дороги друзей разойдутся...

Качество: WEB-DL 1080p
Формат: MKV
Видео кодек: H.264
Аудио кодек: AC3

Видео: 1916x796 (2.40:1), 23.976 fps, MPEG-4 AVC ~4 424 kbps avg
Аудио#1: 48 kHz, AC3 Dolby Digital, 3/2 (L,C,R,l,r) + LFE ch, ~384 kbps | RUS
Аудио#2: 48 kHz, AC3 Dolby Digital, 3/2 (L,C,R,l,r) + LFE ch, ~384 kbps | ENG

скриншот   скриншот   скриншот  

General
Формат : Matroska
Версия формата : Version 2
Размер файла : 5,03 Гбайт
Продолжительность : 2 ч. 15 м.
Общий поток : 5297 Кбит/сек
Дата кодирования : UTC 2017-06-07 23:49:56
Программа кодирования : mkvmerge v3.4.0 ('Rapunzel') built on May 15 2010 09:38:20
Библиотека кодирования : libebml v0.8.0 + libmatroska v0.9.0

Видео
Идентификатор : 1
Формат : AVC
Формат/Информация : Advanced Video Codec
Профиль формата : High@L4.0
Параметр CABAC формата : Да
Параметр ReFrames формата : 5 кадров
Идентификатор кодека : V_MPEG4/ISO/AVC
Продолжительность : 2 ч. 15 м.
Битрейт : 4424 Кбит/сек
Ширина : 1916 пикселей
Высота : 796 пикселей
Соотношение сторон : 2,40:1
Режим частоты кадров : Постоянный
Частота кадров : 23,976 кадра/сек
Цветовое пространство : YUV
Субдискретизация насыщенности : 4:2:0
Битовая глубина : 8 бит
Тип развёртки : Прогрессивная
Бит/(Пиксели*Кадры) : 0.121
Размер потока : 4,20 Гбайт (84%)
Заголовок : The Fate of the Furious (2017) - Release for HDCLUB
Язык : English
Default : Да
Forced : Нет
Основные цвета : BT.709
Характеристики трансфера : BT.709
Коэффициенты матрицы : BT.709
colour_range : Limited

Аудио #1
Идентификатор : 2
Формат : AC-3
Формат/Информация : Audio Coding 3
Расширение режима : CM (complete main)
Параметр Endianness формата : Big
Идентификатор кодека : A_AC3
Продолжительность : 2 ч. 15 м.
Вид битрейта : Постоянный
Битрейт : 384 Кбит/сек
Каналы : 6 каналов
Расположение каналов : Front: L C R, Side: L R, LFE
Частота : 48,0 КГц
Битовая глубина : 16 бит
Метод сжатия : С потерями
Размер потока : 373 Мбайт (7%)
Заголовок : AC3 5.1 @ 384 kbps - DUB, iTunes
Язык : Russian
Default : Да
Forced : Нет

Аудио #2
Идентификатор : 3
Формат : AC-3
Формат/Информация : Audio Coding 3
Расширение режима : CM (complete main)
Параметр Endianness формата : Big
Идентификатор кодека : A_AC3
Продолжительность : 2 ч. 15 м.
Вид битрейта : Постоянный
Битрейт : 384 Кбит/сек
Каналы : 6 каналов
Расположение каналов : Front: L C R, Side: L R, LFE
Частота : 48,0 КГц
Битовая глубина : 16 бит
Метод сжатия : С потерями
Размер потока : 373 Мбайт (7%)
Заголовок : AC3 5.1 @ 384 kbps
Язык : English
Default : Нет
Forced : Нет

Текст #1
Идентификатор : 4
Формат : UTF-8
Идентификатор кодека : S_TEXT/UTF8
Идентификатор кодека/Информация : UTF-8 Plain Text
Заголовок : Forced, iTunes
Язык : Russian
Default : Да
Forced : Нет

Текст #2
Идентификатор : 5
Формат : UTF-8
Идентификатор кодека : S_TEXT/UTF8
Идентификатор кодека/Информация : UTF-8 Plain Text
Заголовок : iTunes
Язык : Russian
Default : Нет
Forced : Нет

Текст #3
Идентификатор : 6
Формат : UTF-8
Идентификатор кодека : S_TEXT/UTF8
Идентификатор кодека/Информация : UTF-8 Plain Text
Заголовок : Forced, iTunes
Язык : English
Default : Нет
Forced : Нет

Текст #4
Идентификатор : 7
Формат : UTF-8
Идентификатор кодека : S_TEXT/UTF8
Идентификатор кодека/Информация : UTF-8 Plain Text
Заголовок : SDH, iTunes
Язык : English
Default : Нет
Forced : Нет

Меню
00:00:00.000 : en:1
00:13:09.914 : en:2
00:20:31.772 : en:3
00:26:39.639 : en:4
00:32:27.778 : en:5
00:36:41.573 : en:6
00:43:36.613 : en:7
00:47:46.779 : en:8
00:56:01.732 : en:9
01:04:09.302 : en:10
01:09:09.060 : en:11
01:13:25.274 : en:12
01:21:26.713 : en:13
01:29:30.947 : en:14
01:35:13.456 : en:15
01:39:56.780 : en:16
01:45:01.709 : en:17
01:53:02.856 : en:18
02:01:52.260 : en:19
02:06:46.095 : en:20

pb.wtf



Скачать Форсаж 8 через торрент http://img11.lostpic.net/2017/03/31/04f64722254a6215f5a5715627ca5a72.png Скачать фильм Форсаж 8 через торрент бесплантно в хорошем качестве Описание: Пристегните ремни — гонка продолжается. Гавана, Берлин, Нью-Йорк, для самой крутой команды в мире нет ничего невозможного, пока ... 9.7 10 108
Info! Золотая раздача, скачанное не засчитывается.
Торрент: Зарегистрирован [2017-06-08 09:30] · скачан: 6 194 раз
Статус: √ проверено
Размер: 5.03 GB
Как cкачать? Как скачать Форсаж 8 через торрент | qTorrent

% Раздел Тема Автор DL S | L
Фильмы (HD 720p, 1080p) (48-60 fps) [ 4.89 GB ] Форсаж 8 / The Fate of the Furious [2017 WEBRip 720p / 60 FPS Авторский Director's cut] от R.G. HD-Films slaventi-69 Скачать
1 | 0
Фильмы с авторской озвучкой [ 2.07 GB ] Форсаж 8 / The Fate of the Furious [2017 WEBRip] [Director's Extended Cut / Режиссерская расширенная версия] [AVO] killermax2013 Скачать
1 | 0
Ultra HD (UHD: 2K, 4K, 8K) — видео сверхвысокой чёткости [ 45.84 GB ] Форсаж 8 / The Fate of the Furious [2017 UHD BDRemux 2160p] DUB [Dolby Vision] sheker187 Скачать
1 | 0
Ultra HD (UHD: 2K, 4K, 8K) — видео сверхвысокой чёткости [ 59.77 GB ] Форсаж 8 / The Fate of the Furious [2017 UHD BDRemux 2160p] DUB + 2xAVO [HDR + Dolby Vision] sheker187 Скачать
1 | 0
Фильмы [HD 720p, 1080p] (Хороший звук DUB, MVO) [ 5.6 GB ] Форсаж 8 / The Fate of the Furious [2017 BDRip 1080p HEVC ] Мичман37 Скачать
1 | 0
Ultra HD (UHD: 2K, 4K, 8K) — видео сверхвысокой чёткости [ 55.04 GB ] Форсаж 8 / The Fate of the Furious [2017 UHD Blu-ray EUR 2160p] [HDR + Dolby Vision] sheker187 Скачать
1 | 0
Ultra HD (UHD: 2K, 4K, 8K) — видео сверхвысокой чёткости [ 49.16 GB ] Форсаж 8 / The Fate of the Furious [2017 UHD BDRemux 2160p] DUB+AVO [] bober100 Скачать
1 | 0

28-11-2019 20:33  

Отключить всю рекламу на сайте

08-06-2017 20:19 Форсаж 8 Скачать торрент  

Спасиб большоеpb.wtf



09-06-2017 21:46 Форсаж 8 Скачать торрент  

Пол Уокер в гробу ворочается от сюжета, особенно от концовки.
ИМХОpb.wtf



10-06-2017 19:56 Форсаж 8 Скачать торрент  

спасибо ) за качество ) глянемpb.wtf



11-06-2017 03:53 Форсаж 8 Скачать торрент  

lkonstantinl писал(а):

спасибо ) за качество ) глянем

Не за что)pb.wtf



12-06-2017 04:22 Форсаж 8 Скачать торрент  

В 3D будет,не в курсе?pb.wtf



12-06-2017 06:08 Форсаж 8 Скачать торрент  

zra писал(а):

В 3D будет,не в курсе?

Будет! когда не знаю.pb.wtf



12-06-2017 15:16 Форсаж 8 Скачать торрент  

Пионэры,с седыми яйцами,мать вашу...pb.wtf



14-06-2017 20:39 Форсаж 8 Скачать торрент  

Цитата:

Форсаж 8 / The Fate of the Furious (Ф. Гэри Грей) [2017, боевик, триллер, криминал, WEB-DL 1080p] DUB [iTunes]

pb.wtf



15-06-2017 06:19 Форсаж 8 Скачать торрент  

Хорошая комедия ,поржал )))pb.wtf



16-06-2017 18:19 Форсаж 8 Скачать торрент  

Хватило на 29 мин.pb.wtf



27-06-2017 17:11 Форсаж 8 Скачать торрент  

Жуткое г....pb.wtf



20-08-2017 01:18 Форсаж 8 Скачать торрент  

Ляпа с ребенком торетто когда он его первый раз увидел, кто нить заметил ?pb.wtf



    Дорогой пользователь! Огромная просьба, поблагодарите релизера, оцените раздачу и оставьте свои комментарий, если Вы скачали Форсаж 8 через торрент бесплатно! Внесите свою лепту в развитие PiratBit!
    Комментировать посты могут только пользователи прошедшие не сложную регистрацию
    Показать сообщения:    

    Форсаж 8 через торрент
    Скачать бесплатно Форсаж 8
    Форсаж 8 скачать торрент
    Форсаж 8 смотреть онлайн
    Cкачать фильм Форсаж 8 бесплатно
    Форсаж 8 скачать торрент в хорошем качестве
    Форсаж 8 смотреть онлайн бесплатно в хорошем качестве


    Вы не можете начинать темы
    Вы не можете отвечать на сообщения
    Вы не можете редактировать свои сообщения
    Вы не можете удалять свои сообщения
    Вы не можете голосовать в опросах
    Вы не можете прикреплять файлы к сообщениям
    Вы можете скачивать файлы