2 сезон

iTunes

1 сезон

1

iTunes

iTunes

iTunes

1 сезон

RePack

30

ИГРА 18+

pack

ВАЖНО

!!Акция!!

Alien_RageХит недели

RePack

MK11
pack

Забери бонус

RePack

jed

!!Акция!!

Alien_Rage

RePack

fifa19

RePack

Assassins Creed: Odyssey

RePack

NEED FOR SPEED™ PAYBACK

4 сезон

9 сезон

Бесстыжие 9 сезон

Все сериалы

все сериалы на PB.wtf

RePack

FAR CRY 5
  

Жизненные обстоятельства /1-4 серия из 4/ (Андрей Мармонтов) [2017 г., Криминальный фильм, мелодрама, HDTVRip] pb.wtf

Жизненные обстоятельства через торрент pb.wtf

Размер: 2.35 GB | Добавлен: 3 года 4 мес. назад | Торрент скачан:165 раз
Скачать  

09-06-2017 08:14 Жизненные обстоятельства Скачать торрент  

Жизненные обстоятельства /1-4 серия из 4/
Год выпуска: 2017
Страна: Россия
Жанр: Криминальный фильм, мелодрама
Продолжительность: 4 x ~ 00:50:00
Субтитры: нет

Режиссер: Андрей Мармонтов

В ролях: Артём Осипов, Карина Разумовская, Алиса Корсак, Сергей Погосян, Владимир Мишуков, Алексей Матошин, Андрей Субботин, Андрей Ташков

Описание: В свои тридцать лет Андрей всё ещё скромный «зам.нач» отдела одного из таможенных терминалов. Разведен – жена, которую он, кажется, по настоящему никогда не любил, давно ушла от него к другому человеку. Однажды, зайдя по дороге в супермаркет, Андрей встречает здесь свою бывшую знакомую Женю. Когда-то он любил её, но она предпочла его более яркого и весёлого друга Богдана. Андрей совсем не рад тому, что они снова увиделись – ему не просто было её позабыть, и вот опять…

Богдан звонит Андрею и приглашает прийти в гости. Андрей пытается отказаться, но Богдан настаивает – они давно не виделись, тем более что у Жени будет день рождения. Андрей обещает приехать. Престижный дачный посёлок, сосны, охрана - внешне у Богдана всё прекрасно, но на самом деле – это не так. Богдан, будучи по складу характера авантюристом, заключил сделку, в которую рискнул вложить миллионы чужих денег и - всё потерял.

Качество: HDTVRip
Формат: AVI
Видео кодек: XviD
Аудио кодек: AC3
Видео: XviD, ~1500 Kbps, 720x400
Аудио#1: AC3, 2 ch, 192 Kbps




General
Complete name : H:\релизы.торрентфайл\Zhiznennye.obstojatelstva.2017.HDTVRip.Files-x\01.Zhiznennye.obstojatelstva.2017.HDTVRip.Files-x.avi
Format : AVI
Format/Info : Audio Video Interleave
File size : 601 MiB
Duration : 51mn 6s
Overall bit rate : 1 643 Kbps
Writing application : VirtualDubMod 1.5.10.3 | www.virtualdub-fr.org || (build 2550/release)
Writing library : VirtualDubMod build 2550/release

Video
ID : 0
Format : MPEG-4 Visual
Format profile : Advanced Simple@L5
Format settings, BVOP : 1
Format settings, QPel : No
Format settings, GMC : No warppoints
Format settings, Matrix : Custom
Codec ID : XVID
Codec ID/Hint : XviD
Duration : 51mn 6s
Bit rate : 1 441 Kbps
Width : 720 pixels
Height : 400 pixels
Display aspect ratio : 16:9
Frame rate : 25.000 fps
Color space : YUV
Chroma subsampling : 4:2:0
Bit depth : 8 bits
Scan type : Progressive
Compression mode : Lossy
Bits/(Pixel*Frame) : 0.200
Stream size : 527 MiB (88%)
Writing library : XviD 73

Audio
ID : 1
Format : AC-3
Format/Info : Audio Coding 3
Mode extension : CM (complete main)
Format settings, Endianness : Big
Codec ID : 2000
Duration : 51mn 6s
Bit rate mode : Constant
Bit rate : 192 Kbps
Channel(s) : 2 channels
Channel positions : Front: L R
Sampling rate : 48.0 KHz
Bit depth : 16 bits
Compression mode : Lossy
Stream size : 70.2 MiB (12%)
Alignment : Split accross interleaves
Interleave, duration : 40 ms (1.00 video frame)
Interleave, preload duration : 500 ms

pb.wtf



Скачать Жизненные обстоятельства через торрент http://i94.fastpic.ru/big/2017/0608/f1/51b663e2e805b4411100f51e8abba6f1.jpg Скачать фильм Жизненные обстоятельства через торрент бесплантно в хорошем качестве Описание: В свои тридцать лет Андрей всё ещё скромный «зам.нач» отдела одного из таможенных терминалов. Разведен – жена, которую он, ... 10 10 6
Торрент: Зарегистрирован [2017-06-09 08:14] · скачан: 165 раз
Статус: √ проверено
Размер: 2.35 GB
Как cкачать? Как скачать Жизненные обстоятельства через торрент | qTorrent

% Раздел Тема Автор DL S | L
Наши сериалы [ 2.41 GB ] Жизненные обстоятельства / Серии: 1-4 из 4 [2014 HDTVRip-AVC] aleksan55 Скачать
1 | 0

28-11-2019 20:33  

Отключить всю рекламу на сайте

    Дорогой пользователь! Огромная просьба, поблагодарите релизера, оцените раздачу и оставьте свои комментарий, если Вы скачали Жизненные обстоятельства через торрент бесплатно! Внесите свою лепту в развитие PiratBit!
    Комментировать посты могут только пользователи прошедшие не сложную регистрацию
    Показать сообщения:    

    Жизненные обстоятельства через торрент
    Скачать бесплатно Жизненные обстоятельства
    Жизненные обстоятельства скачать торрент
    Жизненные обстоятельства смотреть онлайн
    Cкачать фильм Жизненные обстоятельства бесплатно
    Жизненные обстоятельства скачать торрент в хорошем качестве
    Жизненные обстоятельства смотреть онлайн бесплатно в хорошем качестве


    Вы не можете начинать темы
    Вы не можете отвечать на сообщения
    Вы не можете редактировать свои сообщения
    Вы не можете удалять свои сообщения
    Вы не можете голосовать в опросах
    Вы не можете прикреплять файлы к сообщениям
    Вы можете скачивать файлы