Ссылка на приватное зеркало всего за 1$. Внимание количество ограничено!!!

OK

1+1

iTunes

мы

OK

1

WEB-DLRip

Джокер

Пифагор

Ведьмак / The Witcher сериал

iTunes

ПШазам

ОК

Оно 2

iTunes

30
pack

Вам бонус

ВАЖНО

!!Акция!!

Alien_RageХит недели

RePack

Resident Evil 21

ИГРА 18+

pack

RePack

jed

RePack

fifa19

RePack

Assassins Creed: Odyssey

RePack

NEED FOR SPEED™ PAYBACK

4 сезон

9 сезон

Бесстыжие 9 сезон

Все сериалы

все сериалы на PB.wtf

RePack

FAR CRY 5
  

Последний подвиг Камо (Степан Кеворков, Григорий Мелик-Авакян) [1973, СССР, боевик, приключения, биография, DVDRip от AVP Studio] pb.wtf

Последний подвиг Камо через торрент pb.wtf

Раздают: 1 [ 0 KB/s ]
Размер: 745 MB | Добавлен: 2 года 7 мес. назад | Торрент скачан:17 раз
Скачать  

10-06-2017 08:19 Последний подвиг Камо Скачать торрент  

Последний подвиг Камо
Страна: СССР
Производство: Арменфильм

Жанр: боевик, приключения, биография
Год выпуска: 1973
Продолжительность: 01:29:35

Перевод: Не требуется
Cубтитры: нет
Оригинальная аудиодорожка: русский

Режиссер: Степан Кеворков, Григорий Мелик-Авакян

В ролях:
Гурген Тонунц, Анатолий Фалькович, Ия Саввина, Гаруш Хажакян, Бабкен Нерсесян, Ованес Ванян, София Девоян, Метаксия Симонян, Владимир Маренков, Виктор Белановский, Владимир Абаджян, Юрий Багинян...
Об актёрах подробней

Описание:
Третий фильм кинотрилогии ("Лично известен", "Чрезвычайное поручение", "Последний подвиг Камо") о революционере-большевике С.А.Тер-Петросяне, известном под именем Камо (1882-1922).

Источник: DVD5 R5
Качество видео: DVDRip
Формат видео: AVI

Видео: 704x304 (2,35:1), 25 fps, XviD ~ 961 kbps avg, 0.180 bit/pixel
Аудио: 48 kHz, Dolby Digital AC3 2.0, 192 kbps

Раздача от:
Общее
Полное имя : Posledniy.podvig.Kamo.1973.DVDRip_[New-team]_by_AVP_Studio.avi
Формат : AVI
Формат/Информация : Audio Video Interleave
Размер файла : 745 Мбайт
Продолжительность : 1 ч. 29 м.
Общий поток : 1163 Кбит/сек
Программа кодирования : VirtualDubMod 1.5.10.3 | www.virtualdub-fr.org || (build 2550/release)
Библиотека кодирования : VirtualDubMod build 2550/release

Видео
Идентификатор : 0
Формат : MPEG-4 Visual
Профиль формата : Advanced Simple@L5
Параметр BVOP формата : 1
Параметр QPel формата : Нет
Параметр GMC формата : Без точки перехода
Параметр матрицы формата : Выборочная
Идентификатор кодека : XVID
Идентификатор кодека/Подсказка : XviD
Продолжительность : 1 ч. 29 м.
Битрейт : 961 Кбит/сек
Ширина : 704 пикселя
Высота : 304 пикселя
Соотношение сторон : 2,35:1
Частота кадров : 25,000 кадров/сек
Цветовое пространство : YUV
Субдискретизация насыщенности : 4:2:0
Битовая глубина : 8 бит
Тип развёртки : Прогрессивная
Метод сжатия : С потерями
Бит/(Пиксели*Кадры) : 0.180
Размер потока : 616 Мбайт (83%)
Библиотека кодирования : XviD 73

Аудио
Идентификатор : 1
Формат : AC-3
Формат/Информация : Audio Coding 3
Параметр Endianness формата : Big
Идентификатор кодека : 2000
Продолжительность : 1 ч. 29 м.
Вид битрейта : Постоянный
Битрейт : 192 Кбит/сек
Каналы : 2 канала
Расположение каналов : Front: L R
Частота : 48,0 КГц
Частота кадров : 31,250 кадров/сек (1536 spf)
Битовая глубина : 16 бит
Метод сжатия : С потерями
Размер потока : 123 Мбайт (17%)
Выравнивание : Разделение по промежуткам
Продолжительность промежутка : 40 мс. (1,00 видеокадр)
Время предзагрузки промежутка : 500 мс
pb.wtf



Скачать Последний подвиг Камо через торрент http://s002.radikal.ru/i198/1706/76/3e97882e3d44.png Скачать фильм Последний подвиг Камо через торрент бесплантно в хорошем качестве Описание:Третий фильм кинотрилогии ("Лично известен", "Чрезвычайное поручение", "Последний подвиг Камо") о революционере-большевике ... 10 10 1
Info! Золотая раздача, скачанное не засчитывается.
Торрент: Зарегистрирован [2017-06-10 08:19] · скачан: 17 раз
Статус: √ проверено
Размер: 745 MB
Как cкачать? Как скачать Последний подвиг Камо через торрент | qTorrent

% Раздел Тема Автор DL S | L
Кино СССР [ 741 MB ] Последний подвиг Камо [1973 СССР биография DVDRip-AVC от AVP Studio] AVP Studio Скачать
1 | 0

28-11-2019 20:33  

Отключить всю рекламу на сайте

    Дорогой пользователь! Огромная просьба, поблагодарите релизера, оцените раздачу и оставьте свои комментарий, если Вы скачали Последний подвиг Камо через торрент бесплатно! Внесите свою лепту в развитие PiratBit!
    Комментировать посты могут только пользователи прошедшие не сложную регистрацию
    Показать сообщения:    

    Последний подвиг Камо через торрент
    Скачать бесплатно Последний подвиг Камо
    Последний подвиг Камо скачать торрент
    Последний подвиг Камо смотреть онлайн
    Cкачать фильм Последний подвиг Камо бесплатно
    Последний подвиг Камо скачать торрент в хорошем качестве
    Последний подвиг Камо смотреть онлайн бесплатно в хорошем качестве


    Вы не можете начинать темы
    Вы не можете отвечать на сообщения
    Вы не можете редактировать свои сообщения
    Вы не можете удалять свои сообщения
    Вы не можете голосовать в опросах
    Вы не можете прикреплять файлы к сообщениям
    Вы можете скачивать файлы