новый адрес
Мега распродажа FORZA HORIZON 4 ULTIMATE+ВСЕ DLC+ОНЛАЙН всего за 499р. 349 руб. (супер цена). Внимание количество ограничено!!!

iTunes

1+1

iTunes

мы

iTunes

1

iTunes

Чернобыль

iTunes

Ральф против интернета

Лицензия

ПШазам

Лицензия

Оно 2

Лицензия

30
pack

ВАЖНО

!!Акция!!

Alien_RageХит недели

RePack

Resident Evil 21

ИГРА 18+

pack

RePack

jed

!!Акция!!

Alien_Rage

RePack

fifa19

RePack

Assassins Creed: Odyssey

RePack

NEED FOR SPEED™ PAYBACK

3 сезон

9 сезон

Бесстыжие 9 сезон

Все сериалы

все сериалы на PB.wtf

RePack

FAR CRY 5
Ребята, катастрофически не хватает 1900р. для оплаты серверов за Октябрь (всвязи с блокировками трафик упал в 3 раза), 1-2р., выручайте.
  

Последний подвиг Камо (Степан Кеворков, Григорий Мелик-Авакян) [1973, СССР, боевик, приключения, биография, DVDRip-AVC от AVP Studio] pb.wtf

Последний подвиг Камо через торрент pb.wtf

Размер: 741 MB | Добавлен: 2 года 5 мес. назад | Торрент скачан:21 раз
Скачать  

10-06-2017 08:19 Последний подвиг Камо Скачать торрент  

Последний подвиг Камо
Страна: СССР
Производство: Арменфильм

Жанр: боевик, приключения, биография
Год выпуска: 1973
Продолжительность: 01:29:35

Перевод: Не требуется
Cубтитры: нет
Оригинальная аудиодорожка: русский

Режиссер: Степан Кеворков, Григорий Мелик-Авакян

В ролях:
Гурген Тонунц, Анатолий Фалькович, Ия Саввина, Гаруш Хажакян, Бабкен Нерсесян, Ованес Ванян, София Девоян, Метаксия Симонян, Владимир Маренков, Виктор Белановский, Владимир Абаджян, Юрий Багинян...
Об актёрах подробней

Описание:
Третий фильм кинотрилогии ("Лично известен", "Чрезвычайное поручение", "Последний подвиг Камо") о революционере-большевике С.А.Тер-Петросяне, известном под именем Камо (1882-1922).

Источник: DVD5 R5
Качество видео: DVDRip-AVC
Формат видео: MKV

Видео: 704->851x362 (2,35:1), 25 fps, H264 ~ 963 kbps avg, 0.151 bit/pixel
Аудио: 48 kHz, Dolby Digital AC3 2.0, 192 kbps

Раздача от:
Общее
Полное имя : Posledniy.podvig.Kamo.1973.DVDRip-AVC_[New-team]_by_AVP_Studio.mkv
Формат : Matroska
Версия формата : Version 2
Размер файла : 741 Мбайт
Продолжительность : 1 ч. 29 м.
Общий поток : 1157 Кбит/сек
Дата кодирования : UTC 2017-06-09 13:15:27
Программа кодирования : mkvmerge v6.1.0 ('Old Devil') built on Mar 4 2013 09:10:42
Библиотека кодирования : libebml v1.3.0 + libmatroska v1.4.0

Видео
Идентификатор : 1
Формат : AVC
Формат/Информация : Advanced Video Codec
Профиль формата : High@L4.1
Параметр CABAC формата : Да
Параметр ReFrames формата : 10 кадров
Идентификатор кодека : V_MPEG4/ISO/AVC
Продолжительность : 1 ч. 29 м.
Битрейт : 963 Кбит/сек
Ширина : 704 пикселя
Высота : 362 пикселя
Соотношение сторон : 2,35:1
Соотношение сторон в оригинале : 2,35:1
Режим частоты кадров : Постоянный
Частота кадров : 25,000 кадров/сек
Цветовое пространство : YUV
Субдискретизация насыщенности : 4:2:0
Битовая глубина : 8 бит
Тип развёртки : Прогрессивная
Бит/(Пиксели*Кадры) : 0.151
Размер потока : 603 Мбайт (81%)
Библиотека кодирования : x264 core 130 r2273 b3065e6
Настройки программы : cabac=1 / ref=10 / deblock=1:-2:-1 / analyse=0x3:0x113 / me=umh / subme=10 / psy=1 / psy_rd=1.00:0.00 / mixed_ref=1 / me_range=32 / chroma_me=1 / trellis=2 / 8x8dct=1 / cqm=0 / deadzone=21,11 / fast_pskip=1 / chroma_qp_offset=-2 / threads=6 / lookahead_threads=1 / sliced_threads=0 / nr=0 / decimate=0 / interlaced=0 / bluray_compat=0 / constrained_intra=0 / bframes=8 / b_pyramid=2 / b_adapt=2 / b_bias=0 / direct=3 / weightb=1 / open_gop=0 / weightp=2 / keyint=250 / keyint_min=25 / scenecut=40 / intra_refresh=0 / rc=2pass / mbtree=0 / bitrate=963 / ratetol=1.0 / qcomp=0.60 / qpmin=0 / qpmax=69 / qpstep=4 / cplxblur=20.0 / qblur=0.5 / ip_ratio=1.40 / pb_ratio=1.30 / aq=1:1.00
Default : Да
Forced : Нет

Аудио
Идентификатор : 2
Формат : AC-3
Формат/Информация : Audio Coding 3
Параметр Endianness формата : Big
Идентификатор кодека : A_AC3
Продолжительность : 1 ч. 29 м.
Вид битрейта : Постоянный
Битрейт : 192 Кбит/сек
Каналы : 2 канала
Расположение каналов : Front: L R
Частота : 48,0 КГц
Частота кадров : 31,250 кадров/сек (1536 spf)
Битовая глубина : 16 бит
Метод сжатия : С потерями
Размер потока : 123 Мбайт (17%)
Default : Да
Forced : Нет
pb.wtf



Скачать Последний подвиг Камо через торрент http://s002.radikal.ru/i198/1706/76/3e97882e3d44.png Скачать фильм Последний подвиг Камо через торрент бесплантно в хорошем качестве Описание:Третий фильм кинотрилогии ("Лично известен", "Чрезвычайное поручение", "Последний подвиг Камо") о революционере-большевике ... 10 10 2
Info! Золотая раздача, скачанное не засчитывается.
Торрент: Зарегистрирован [2017-06-10 08:19] · скачан: 21 раз
Статус: √ проверено
Размер: 741 MB
Как cкачать? Как скачать Последний подвиг Камо через торрент | qTorrent

% Раздел Тема Автор DL S | L
Кино СССР [ 745 MB ] Последний подвиг Камо [1973 СССР биография DVDRip от AVP Studio] AVP Studio Скачать
1 | 0


>> Регистрируемся здесь <<






Отзывы и комментарии о схеме читаем и пишем здесь: ---> Отзывы и комментарии о схеме

Новые благодарочки в телеграм довольных пользователей:
скриншот   скриншот   скриншот   скриншот   скриншот
    Дорогой пользователь! Огромная просьба, поблагодарите релизера, оцените раздачу и оставьте свои комментарий, если Вы скачали Последний подвиг Камо через торрент бесплатно! Внесите свою лепту в развитие PiratBit!
    Комментировать посты могут только пользователи прошедшие не сложную регистрацию
    Показать сообщения:    

    Последний подвиг Камо через торрент
    Скачать бесплатно Последний подвиг Камо
    Последний подвиг Камо скачать торрент
    Последний подвиг Камо смотреть онлайн
    Cкачать фильм Последний подвиг Камо бесплатно
    Последний подвиг Камо скачать торрент в хорошем качестве
    Последний подвиг Камо смотреть онлайн бесплатно в хорошем качестве


    Вы не можете начинать темы
    Вы не можете отвечать на сообщения
    Вы не можете редактировать свои сообщения
    Вы не можете удалять свои сообщения
    Вы не можете голосовать в опросах
    Вы не можете прикреплять файлы к сообщениям
    Вы можете скачивать файлы