Ссылка на приватное зеркало нашего сайта всего за 1$. Внимание количество ограничено!!!

2 сезон

iTunes

1 сезон

1

iTunes

iTunes

iTunes

1 сезон

RePack

30

ИГРА 18+

pack

ВАЖНО

!!Акция!!

Alien_RageХит недели

RePack

MK11
pack

Забери бонус

RePack

jed

!!Акция!!

Alien_Rage

RePack

fifa19

RePack

Assassins Creed: Odyssey

RePack

NEED FOR SPEED™ PAYBACK

4 сезон

9 сезон

Бесстыжие 9 сезон

Все сериалы

все сериалы на PB.wtf

RePack

FAR CRY 5
  

Никсон (Расширенная версия) / Nixon (Extended Cut) (Оливер Стоун) [1985, драма, биография, история, BDRip 1080p by msltel] MVO, 2 x AVO pb.wtf

Никсон через торрент pb.wtf

Размер: 22.72 GB | Добавлен: 3 года 4 мес. назад | Торрент скачан:28 раз
Скачать  

10-06-2017 12:00 Никсон Скачать торрент  

Название: Никсон
Оригинальное название: Nixon
Год выпуска: 1995
Страна: США
Жанр: драма, биография, история
Продолжительность: 03:32:14
Перевод: профессиональный многоголосый, авторский

Режиссёр: Оливер Стоун

В ролях: Энтони Хопкинс, Джоан Аллен, Пауэрс Бут, Эд Харрис, Боб Хоскинс, И. Дж. Маршалл, Дэвид Пэймер, Дэвид Хайд Пирс, Пол Сорвино, Мэри Стинберген, Дж. Т. Уолш, Джеймс Вудс, Брайан Бедфорд, Кевин Данн, Эд Херрманн, Джон Каннингэм, Дэвид Бэрри Грэй, Джон С. МакГинли, Сол Рубинек, Джон Диль, Роберт Белтран, Тони Плана, Ларри Хэгман, Дэн Хедайя, Джордж Плимптон, Майкл Чиклис, Джоанна Гоуинг, Джеймс Пикенс мл., Мэдлин Кан, Энтони Ло Бьянко, Тони Голдуин

Описание: История Ричарда Никсона, бывшего президента Соединенных Штатов, президентский срок которого закончился с позором. Он стал единственным американским президентом, который сложил свои полномочия, чтобы избежать импичмента...



Качество: BDRip 1080p
Формат: MKV
Видео: MPEG-4 AVC, 11.9 Mбит/с, 1920x800
Аудио 1: русский, AC3, 192 kbps, 2 ch, 48 kHz [профессиональный многоголосый, 1 канал]
Аудио 2: русский, AC3, 192 kbps, 2 ch, 48 kHz [авторский, Андрей Гаврилов]
Аудио 3: русский, DTS, 1509 kbps, 6 ch, 48 kHz [авторский, Юрий Немахов]
Аудио 4: английский, DTS, 1509 kbps, 6 ch, 48 kHz [оригинал]
Субтитры 1: русские
Субтитры 2: английские
Имеются неименованные главы/чаптеры.
Общее
Уникальный идентификатор : 184005187984438740606898947860141206407 (0x8A6E1C328A4F0B92B02EEF0A9E886B87)
Полное имя : D:\Video\Nixon.1985.ExtCut.BDRip.1080p by msltel.mkv
Формат : Matroska
Версия формата : Version 4 / Version 2
Размер файла : 22,7 Гбайт
Продолжительность : 3 ч. 32 м.
Общий поток : 15,3 Мбит/сек
Название фильма : Rip by msltel
Дата кодирования : UTC 2017-06-10 06:47:45
Программа кодирования : mkvmerge v8.2.0 ('World of Adventure') 64bit
Библиотека кодирования : libebml v1.3.1 + libmatroska v1.4.2

Видео
Идентификатор : 1
Формат : AVC
Формат/Информация : Advanced Video Codec
Профиль формата : High@L4.1
Параметр CABAC формата : Да
Параметр ReFrames формата : 4 кадра
Идентификатор кодека : V_MPEG4/ISO/AVC
Продолжительность : 3 ч. 32 м.
Битрейт : 11,9 Мбит/сек
Ширина : 1920 пикселей
Высота : 800 пикселей
Соотношение сторон : 2,40:1
Режим частоты кадров : Постоянный
Частота кадров : 23,976 (24000/1001) кадра/сек
Цветовое пространство : YUV
Субдискретизация насыщенности : 4:2:0
Битовая глубина : 8 бит
Тип развёртки : Прогрессивная
Бит/(Пиксели*Кадры) : 0.324
Размер потока : 17,7 Гбайт (78%)
Библиотека кодирования : x264 core 146 r2538 121396c
Настройки программы : cabac=1 / ref=4 / deblock=1:-3:-2 / analyse=0x3:0x113 / me=umh / subme=11 / psy=1 / psy_rd=1.00:0.15 / mixed_ref=1 / me_range=32 / chroma_me=1 / trellis=2 / 8x8dct=1 / cqm=0 / deadzone=21,11 / fast_pskip=0 / chroma_qp_offset=-3 / threads=6 / lookahead_threads=1 / sliced_threads=0 / nr=0 / decimate=1 / interlaced=0 / bluray_compat=0 / constrained_intra=0 / bframes=8 / b_pyramid=2 / b_adapt=2 / b_bias=0 / direct=1 / weightb=1 / open_gop=0 / weightp=2 / keyint=230 / keyint_min=23 / scenecut=40 / intra_refresh=0 / rc_lookahead=40 / rc=crf / mbtree=0 / crf=18.0 / qcomp=0.60 / qpmin=0 / qpmax=69 / qpstep=4 / vbv_maxrate=62500 / vbv_bufsize=78125 / crf_max=0.0 / nal_hrd=none / filler=0 / ip_ratio=1.40 / pb_ratio=1.30 / aq=1:1.00
Язык : English
Default : Да
Forced : Нет

Аудио #1
Идентификатор : 2
Формат : AC-3
Формат/Информация : Audio Coding 3
Параметр Endianness формата : Big
Идентификатор кодека : A_AC3
Продолжительность : 3 ч. 32 м.
Вид битрейта : Постоянный
Битрейт : 192 Кбит/сек
Каналы : 2 канала
Расположение каналов : Front: L R
Частота : 48,0 КГц
Частота кадров : 31,250 кадров/сек (1536 spf)
Битовая глубина : 16 бит
Метод сжатия : С потерями
Размер потока : 291 Мбайт (1%)
Заголовок : MVO (1 канал)
Язык : Russian
ServiceKind/String : Complete Main
Default : Да
Forced : Нет

Аудио #2
Идентификатор : 3
Формат : AC-3
Формат/Информация : Audio Coding 3
Параметр Endianness формата : Big
Идентификатор кодека : A_AC3
Продолжительность : 3 ч. 32 м.
Вид битрейта : Постоянный
Битрейт : 192 Кбит/сек
Каналы : 2 канала
Расположение каналов : Front: L R
Частота : 48,0 КГц
Частота кадров : 31,250 кадров/сек (1536 spf)
Битовая глубина : 16 бит
Метод сжатия : С потерями
Размер потока : 291 Мбайт (1%)
Заголовок : AVO (Андрей Гаврилов)
Язык : Russian
ServiceKind/String : Complete Main
Default : Нет
Forced : Нет

Аудио #3
Идентификатор : 4
Формат : DTS
Формат/Информация : Digital Theater Systems
Режим : 16
Параметр Endianness формата : Big
Идентификатор кодека : A_DTS
Продолжительность : 3 ч. 32 м.
Вид битрейта : Постоянный
Битрейт : 1509 Кбит/сек
Каналы : 6 каналов
Расположение каналов : Front: L C R, Side: L R, LFE
Частота : 48,0 КГц
Частота кадров : 93,750 кадра/сек (512 spf)
Битовая глубина : 16 бит
Метод сжатия : С потерями
Размер потока : 2,24 Гбайт (10%)
Заголовок : AVO (Юрий Немахов)
Язык : Russian
Default : Нет
Forced : Нет

Аудио #4
Идентификатор : 5
Формат : DTS
Формат/Информация : Digital Theater Systems
Режим : 16
Параметр Endianness формата : Big
Идентификатор кодека : A_DTS
Продолжительность : 3 ч. 32 м.
Вид битрейта : Постоянный
Битрейт : 1509 Кбит/сек
Каналы : 6 каналов
Расположение каналов : Front: L C R, Side: L R, LFE
Частота : 48,0 КГц
Частота кадров : 93,750 кадра/сек (512 spf)
Битовая глубина : 16 бит
Метод сжатия : С потерями
Размер потока : 2,24 Гбайт (10%)
Заголовок : original
Язык : English
Default : Нет
Forced : Нет

Текст
Идентификатор : 6
Формат : UTF-8
Идентификатор кодека : S_TEXT/UTF8
Идентификатор кодека/Информация : UTF-8 Plain Text
Продолжительность : 3 ч. 26 м.
Битрейт : 105 бит/сек
ElementCount : 2965
Размер потока : 159 Кбайт (0%)
Заголовок : английские
Язык : English
Default : Нет
Forced : Нет

Меню
00:00:00.000 : :Chapter 01
00:06:07.366 : :Chapter 02
00:08:55.576 : :Chapter 03
00:16:16.892 : :Chapter 04
00:21:10.560 : :Chapter 05
00:27:05.165 : :Chapter 06
00:30:21.902 : :Chapter 07
00:37:06.181 : :Chapter 08
00:46:14.313 : :Chapter 09
00:52:11.128 : :Chapter 10
00:57:28.111 : :Chapter 11
01:03:56.666 : :Chapter 12
01:14:29.840 : :Chapter 13
01:22:24.981 : :Chapter 14
01:26:57.045 : :Chapter 15
01:32:04.936 : :Chapter 16
01:33:26.017 : :Chapter 17
01:44:09.660 : :Chapter 18
01:46:09.071 : :Chapter 19
01:52:52.140 : :Chapter 20
01:57:56.319 : :Chapter 21
02:02:37.600 : :Chapter 22
02:03:28.442 : :Chapter 23
02:10:36.954 : :Chapter 24
02:15:48.598 : :Chapter 25
02:25:43.651 : :Chapter 26
02:29:33.839 : :Chapter 27
02:38:25.037 : :Chapter 28
02:43:26.421 : :Chapter 29
02:45:11.902 : :Chapter 30
02:53:25.727 : :Chapter 31
02:59:31.135 : :Chapter 32
03:08:25.377 : :Chapter 33
03:13:30.599 : :Chapter 34
03:18:48.915 : :Chapter 35
03:21:32.079 : :Chapter 36
03:32:14.221 : :Chapter 37
pb.wtf



Скачать Никсон через торрент http://s56.radikal.ru/i154/1706/1e/603db45b5f72.jpg Скачать фильм Никсон через торрент бесплантно в хорошем качестве Описание: История Ричарда Никсона, бывшего президента Соединенных Штатов, президентский срок которого закончился с позором. Он стал ... 10 10 1
Info! Золотая раздача, скачанное не засчитывается.
Торрент: Зарегистрирован [2017-06-10 12:00] · скачан: 28 раз
Статус: √ проверено
Размер: 22.72 GB
Как cкачать? Как скачать Никсон через торрент | qTorrent

% Раздел Тема Автор DL S | L
Фильмы [HD 720p, 1080p] (Хороший звук DUB, MVO) [ 8.65 GB ] Никсон / Nixon [1995 биография история BDRip 720p by msltel] MVO 2 x AVO msltel Скачать
1 | 0

28-11-2019 20:33  

Отключить всю рекламу на сайте

    Дорогой пользователь! Огромная просьба, поблагодарите релизера, оцените раздачу и оставьте свои комментарий, если Вы скачали Никсон через торрент бесплатно! Внесите свою лепту в развитие PiratBit!
    Комментировать посты могут только пользователи прошедшие не сложную регистрацию
    Показать сообщения:    

    Никсон через торрент
    Скачать бесплатно Никсон
    Никсон скачать торрент
    Никсон смотреть онлайн
    Cкачать фильм Никсон бесплатно
    Никсон скачать торрент в хорошем качестве
    Никсон смотреть онлайн бесплатно в хорошем качестве


    Вы не можете начинать темы
    Вы не можете отвечать на сообщения
    Вы не можете редактировать свои сообщения
    Вы не можете удалять свои сообщения
    Вы не можете голосовать в опросах
    Вы не можете прикреплять файлы к сообщениям
    Вы можете скачивать файлы