Ссылка на приватное зеркало всего за 1$. Внимание количество ограничено!!!

iTunes

iTunes

iTunes

1

iTunes

iTunes

iTunes

iTunes

iTunes

30
pack

$ от Little Big

ВАЖНО

!!Акция!!

Alien_RageХит недели

RePack

Resident Evil 21

ИГРА 18+

pack

RePack

jed

!!Акция!!

Alien_Rage

RePack

fifa19

RePack

Assassins Creed: Odyssey

RePack

NEED FOR SPEED™ PAYBACK

4 сезон

9 сезон

Бесстыжие 9 сезон

Все сериалы

все сериалы на PB.wtf

RePack

FAR CRY 5
  

Дрон / Drone (Джейсон Бурк) [2017, триллер, WEB-DL 1080p] MVO [Студия "Paradox" & Omskbird records] pb.wtf

Дрон через торрент pb.wtf

Размер: 3.29 GB | Добавлен: 3 года 1 мес. назад | Торрент скачан:262 раза
Скачать  

10-06-2017 12:34 Дрон Скачать торрент  

Дрон / Drone
««Choose Your Target Wisely»»

Год выпуска: 2017
Страна: Канада
Жанр: триллер
Продолжительность: 01:29:34
Перевод: Любительский многоголосый [Студия "Paradox" & Omskbird records]
Примечание: Релиз без рекламы
Субтитры: английские
Режиссер: Джейсон Бурк
В ролях:

Шон Бин (Neil Wistin), Патрик Сабонгуй (Imir Shaw), Мэри МакКормак (Ellen Wistin), Максвелл Хэйнс (Shane Wistin), Джоэль Мур (Gary), Вив Ликок (Agent Barker), Шэрон Тейлор (Agent Jenkins), Брэдли Страйкер (Ted Little), Кирби Морроу (Dave Wistin), Кевин О’Грэйди (Father), Томми Юроуп (Team Leader), Камал Малик (Abid)
Описание:
Опытный пилот дрона Нил работает по частному контракту, проводя свои трудовые дни на тайных боевых вылетах, а затем возвращается домой в типичный пригород к ничего не подозревающей семье. Но однажды его секрет раскрывает информационный сайт, выставляя Нила не в лучшем свете. Пакистанский бизнесмен, считающий пилота виновным в смерти жены и ребёнка, начинает его выслеживать, чтобы изощренно отомстить.
Рейтинг:

Качество: WEB-DL 1080p
Формат: MKV
Видео: AVC, 1904x800 (2.40:1), 4384 kbps, 23,976 fps, 0,120 bpp
Аудио №1: русский / AC3 / 2.0 / 48 kHz / 384 kbps / |MVO|
Аудио №2: английский / AC3 / 5.1 / 48 kHz / 384 kbps /
Навигация по главам: есть

General
Unique ID : 223560591450478751996421611327067414430 (0xA8303428B1A42D04A5317B102D925F9E)
Complete name : E:\Drone.2017.L.1080p.WEB-DL.Rustorrents.mkv
Format : Matroska
Format version : Version 2
File size : 3.29 GiB
Duration : 1 h 29 min
Overall bit rate : 5 257 kb/s
Movie name :
Encoded date : UTC 2017-06-10 08:35:56
Writing application : mkvmerge v7.8.0 ('River Man') 32bit built on Apr 3 2015 12:11:22
Writing library : libebml v1.3.1 + libmatroska v1.4.2

Video
ID : 1
Format : AVC
Format/Info : Advanced Video Codec
Format profile : High@L4
Format settings, CABAC : Yes
Format settings, ReFrames : 5 frames
Codec ID : V_MPEG4/ISO/AVC
Duration : 1 h 29 min
Bit rate : 4 385 kb/s
Width : 1 904 pixels
Height : 800 pixels
Display aspect ratio : 2.40:1
Frame rate mode : Constant
Frame rate : 23.976 (24000/1001) FPS
Color space : YUV
Chroma subsampling : 4:2:0
Bit depth : 8 bits
Scan type : Progressive
Bits/(Pixel*Frame) : 0.120
Stream size : 2.74 GiB (83%)
Title : Drone.2017.1080p.WEB-DL.DD5.1.H264-FGT
Language : English
Default : Yes
Forced : No
Color range : Limited
Color primaries : BT.709
Transfer characteristics : BT.709
Matrix coefficients : BT.709

Audio #1
ID : 2
Format : AC-3
Format/Info : Audio Coding 3
Mode extension : CM (complete main)
Format settings, Endianness : Big
Codec ID : A_AC3
Duration : 1 h 29 min
Bit rate mode : Constant
Bit rate : 384 kb/s
Channel(s) : 2 channels
Channel positions : Front: L R
Sampling rate : 48.0 kHz
Frame rate : 31.250 FPS (1536 spf)
Compression mode : Lossy
Delay relative to video : -42 ms
Stream size : 246 MiB (7%)
Title : Paradox
Language : Russian
Default : Yes
Forced : Yes

Audio #2
ID : 3
Format : AC-3
Format/Info : Audio Coding 3
Mode extension : CM (complete main)
Format settings, Endianness : Big
Codec ID : A_AC3
Duration : 1 h 29 min
Bit rate mode : Constant
Bit rate : 384 kb/s
Channel(s) : 6 channels
Channel positions : Front: L C R, Side: L R, LFE
Sampling rate : 48.0 kHz
Frame rate : 31.250 FPS (1536 spf)
Compression mode : Lossy
Delay relative to video : -42 ms
Stream size : 246 MiB (7%)
Title : English
Language : English
Default : No
Forced : No

Text
ID : 4
Format : UTF-8
Codec ID : S_TEXT/UTF8
Codec ID/Info : UTF-8 Plain Text
Language : English
Default : No
Forced : No

Menu
00:00:00.000 : en:Chapter 1
00:10:04.604 : en:Chapter 2
00:19:26.165 : en:Chapter 3
00:31:26.885 : en:Chapter 4
00:40:17.415 : en:Chapter 5
00:51:16.073 : en:Chapter 6
00:59:41.578 : en:Chapter 7
01:10:32.228 : en:Chapter 8
01:20:32.828 : en:Chapter 9
01:26:29.184 : en:Chapter 10
pb.wtf



Скачать Дрон через торрент http://i5.imageban.ru/out/2017/06/10/4100b434ee661784f4ce751377abe323.jpg Скачать фильм Дрон через торрент бесплантно в хорошем качестве Описание: Опытный пилот дрона Нил работает по частному контракту, проводя свои трудовые дни на тайных боевых вылетах, а затем возвращается ... 7.3 10 4
Торрент: Зарегистрирован [2017-06-10 12:34] · скачан: 262 раз
Статус: T временная
Размер: 3.29 GB
Как cкачать? Как скачать Дрон через торрент | qTorrent

% Раздел Тема Автор DL S | L
T Фильмы 2017 [DVDrip, WEB-DLRip, HDrip] (DUB, MVO) [ 1.26 GB ] Дрон / Drone [2017 HDRip-AVC] MVO [Студия "Paradox" & Omskbird records] - ExKinoRay Enigma2010 Скачать
1 | 0
T Фильмы 2017 [DVDrip, WEB-DLRip, HDrip] (DUB, MVO) [ 1.34 GB ] Дрон / Drone [2017 WEB-DLRip-AVC] MVO [Студия "Paradox" & Omskbird records] - ExKinoRay Enigma2010 Скачать
1 | 0
T Фильмы 2017 [DVDrip, WEB-DLRip, HDrip] (DUB, MVO) [ 1.36 GB ] Дрон / Drone [2017 WEB-DLRip] MVO [Студия "Paradox" & Omskbird records] -Lexx- Скачать
1 | 0
T Фильмы 2016 [DVDrip, WEB-DLRip, HDrip] (DUB, MVO) [ 1.37 GB ] Война Дронов / Drone Wars [2016 HDRip Любительский ["Синема УС"] ] oleg8 Скачать
1 | 0
Документальные фильмы и телепередачи [ 599 MB ] Дрон / Drone [2014 Документальный SATRip ] schultz Скачать
1 | 0

28-11-2019 20:33  

Отключить всю рекламу на сайте

10-06-2017 19:45 Дрон Скачать торрент  

Весьма странно, что канадская (американская) цензура позволила этому фильму - БЫТЬ. Т.к. для Америки этот фильм не полит корректен .pb.wtf



11-06-2017 06:37 Дрон Скачать торрент  

Так. Шон Бин, и ему пытаются отомстить. Держу пари в этом фильме он умирает.pb.wtf



12-06-2017 08:18 Дрон Скачать торрент  

драмма,шона убиваютpb.wtf



    Дорогой пользователь! Огромная просьба, поблагодарите релизера, оцените раздачу и оставьте свои комментарий, если Вы скачали Дрон через торрент бесплатно! Внесите свою лепту в развитие PiratBit!
    Комментировать посты могут только пользователи прошедшие не сложную регистрацию
    Показать сообщения:    

    Дрон через торрент
    Скачать бесплатно Дрон
    Дрон скачать торрент
    Дрон смотреть онлайн
    Cкачать фильм Дрон бесплатно
    Дрон скачать торрент в хорошем качестве
    Дрон смотреть онлайн бесплатно в хорошем качестве


    Вы не можете начинать темы
    Вы не можете отвечать на сообщения
    Вы не можете редактировать свои сообщения
    Вы не можете удалять свои сообщения
    Вы не можете голосовать в опросах
    Вы не можете прикреплять файлы к сообщениям
    Вы можете скачивать файлы