2 сезон

iTunes

MVO

1

2 сезон

iTunes

iTunes

1 сезон

RePack

30

Новинка

ВАЖНО

ИГРА 18+

pack

RePack

MK11
pack

Легкие деньги

RePack

jed

RePack

fifa19

RePack

RDR2

RePack

NEED FOR SPEED™ PAYBACK

4 сезон

9 сезон

Бесстыжие 9 сезон

Все сериалы

все сериалы на PB.wtf

RePack

FAR CRY 5

Anonymous, доброй ночи, мы не успеваем собрать деньги на оплату серверов за декабрь и январь, помогите нам пожалуйста в это трудное время. В качестве благодарности мы отключим Вам всю рекламу на сайте (укажите свой ник в строку Ваше имя)!

×
  
Magnet ссылка

Дрон / Drone (Джейсон Бурк) [2017, триллер, WEB-DLRip] MVO [Студия "Paradox" & Omskbird records] pb.wtf

Дрон через торрент pb.wtf

Размер: 1.36 GB | Добавлен: 3 года 7 мес. назад | Торрент скачан:401 раз
Скачать  

10-06-2017 12:48 Дрон Скачать торрент  

Дрон / Drone
««Choose Your Target Wisely»»

Год выпуска: 2017
Страна: Канада
Жанр: триллер
Продолжительность: 01:29:34
Перевод: Любительский многоголосый [Студия "Paradox" & Omskbird records]
Примечание: Релиз без рекламы
Режиссер: Джейсон Бурк
В ролях:

Шон Бин (Neil Wistin), Патрик Сабонгуй (Imir Shaw), Мэри МакКормак (Ellen Wistin), Максвелл Хэйнс (Shane Wistin), Джоэль Мур (Gary), Вив Ликок (Agent Barker), Шэрон Тейлор (Agent Jenkins), Брэдли Страйкер (Ted Little), Кирби Морроу (Dave Wistin), Кевин О’Грэйди (Father), Томми Юроуп (Team Leader), Камал Малик (Abid)
Описание:
Опытный пилот дрона Нил работает по частному контракту, проводя свои трудовые дни на тайных боевых вылетах, а затем возвращается домой в типичный пригород к ничего не подозревающей семье. Но однажды его секрет раскрывает информационный сайт, выставляя Нила не в лучшем свете. Пакистанский бизнесмен, считающий пилота виновным в смерти жены и ребёнка, начинает его выслеживать, чтобы изощренно отомстить.
Рейтинг:

Качество: WEB-DLRip
Формат: AVI
Видео: XviD, 720x304 (2.35:1), 1772 kbps, 23,976 fps, 0,338 bpp
Аудио: AC3 / 2.0 / 48 kHz / 384 kbps /

General
Complete name : E:\Drone.2017.L.WEB-DLRip.Rustorrents.avi
Format : AVI
Format/Info : Audio Video Interleave
File size : 1.36 GiB
Duration : 1 h 29 min
Overall bit rate : 2 166 kb/s
Movie name : Rustorrents.pro
Writing application : VirtualDubMod 1.5.10.3 | www.virtualdub-fr.org || (build 2550/release)

Video
ID : 0
Format : MPEG-4 Visual
Format profile : Advanced Simple@L5
Format settings, BVOP : 2
Format settings, QPel : No
Format settings, GMC : No warppoints
Format settings, Matrix : Custom
Codec ID : XVID
Codec ID/Hint : XviD
Duration : 1 h 29 min
Bit rate : 1 773 kb/s
Width : 720 pixels
Height : 304 pixels
Display aspect ratio : 2.35:1
Frame rate : 23.976 (23976/1000) FPS
Color space : YUV
Chroma subsampling : 4:2:0
Bit depth : 8 bits
Scan type : Progressive
Compression mode : Lossy
Bits/(Pixel*Frame) : 0.338
Stream size : 1.11 GiB (82%)
Writing library : XviD 1.2.1 (UTC 2008-12-04)

Audio
ID : 1
Format : AC-3
Format/Info : Audio Coding 3
Mode extension : CM (complete main)
Format settings, Endianness : Big
Codec ID : 2000
Duration : 1 h 29 min
Bit rate mode : Constant
Bit rate : 384 kb/s
Channel(s) : 2 channels
Channel positions : Front: L R
Sampling rate : 48.0 kHz
Frame rate : 31.250 FPS (1536 spf)
Compression mode : Lossy
Stream size : 246 MiB (18%)
Alignment : Split accross interleaves
Interleave, duration : 42 ms (1.00 video frame)
Interleave, preload duration : 500 ms
pb.wtf



Скачать Дрон через торрент http://i3.imageban.ru/out/2017/06/10/e749943a90af64ba3baadac3f9124e57.jpg Скачать фильм Дрон через торрент бесплантно в хорошем качестве Описание: Опытный пилот дрона Нил работает по частному контракту, проводя свои трудовые дни на тайных боевых вылетах, а затем возвращается ... 9.7 10 15
Торрент: Зарегистрирован [2017-06-10 12:48] · скачан: 401 раз
Статус: T временная
Размер: 1.36 GB
Как cкачать? Как скачать Дрон через торрент | UTorrent

% Раздел Тема Автор DL S | L
T Фильмы 2017 [DVDrip, WEB-DLRip, HDrip] (DUB, MVO) [ 1.26 GB ] Дрон / Drone [2017 HDRip-AVC] MVO [Студия "Paradox" & Omskbird records] - ExKinoRay Enigma2010 Скачать
1 | 0
T Фильмы (WEB-DL 720p, 1080p) [ 3.29 GB ] Дрон / Drone [2017 WEB-DL 1080p] MVO [Студия "Paradox" & Omskbird records] -Lexx- Скачать
1 | 0
T Фильмы 2017 [DVDrip, WEB-DLRip, HDrip] (DUB, MVO) [ 1.34 GB ] Дрон / Drone [2017 WEB-DLRip-AVC] MVO [Студия "Paradox" & Omskbird records] - ExKinoRay Enigma2010 Скачать
1 | 0
T Фильмы 2016 [DVDrip, WEB-DLRip, HDrip] (DUB, MVO) [ 1.37 GB ] Война Дронов / Drone Wars [2016 HDRip Любительский ["Синема УС"] ] oleg8 Скачать
1 | 0
Документальные фильмы и телепередачи [ 599 MB ] Дрон / Drone [2014 Документальный SATRip ] schultz Скачать
1 | 0

28-11-2019 20:33  

Отключить всю рекламу на сайте

10-06-2017 19:11 Дрон Скачать торрент  

Сразу вопрос, Шон Бин не умрет в начале фильма??..pb.wtf



10-06-2017 19:43 Дрон Скачать торрент  

Весьма странно, что канадская (американская) цензура позволила этому фильму - БЫТЬ. Т.к. для Америки этот фильм не полит корректен.pb.wtf



10-06-2017 22:40 Дрон Скачать торрент  

bevveb писал(а):

Весьма странно, что канадская (американская) цензура позволила этому фильму - БЫТЬ. Т.к. для Америки этот фильм не полит корректен.

В фильме есть негры, так что все ок.pb.wtf



11-06-2017 10:14 Дрон Скачать торрент  

Risk писал(а):

bevveb писал(а):

Весьма странно, что канадская (американская) цензура позволила этому фильму - БЫТЬ. Т.к. для Америки этот фильм не полит корректен.

В фильме есть негры, так что все ок.

Негры-геи???:)pb.wtf



11-06-2017 11:21 Дрон Скачать торрент  

MicroCharmelle писал(а):

Сразу вопрос, Шон Бин не умрет в начале фильма??..

pb.wtf



11-06-2017 12:45 Дрон Скачать торрент  

MicroCharmelle писал(а):

Сразу вопрос, Шон Бин не умрет в начале фильма??..

Как ты узнал? Отрубит винтами голову когда он по пьяне и дома захочет поиграть с дроном.pb.wtf



    Дорогой пользователь! Огромная просьба, поблагодарите релизера, оцените раздачу и оставьте свои комментарий, если Вы скачали Дрон через торрент бесплатно! Внесите свою лепту в развитие PiratBit!
    Комментировать посты могут только пользователи прошедшие не сложную регистрацию
    Показать сообщения:    

    Дрон через торрент
    Скачать бесплатно Дрон
    Дрон скачать торрент
    Дрон смотреть онлайн
    Cкачать фильм Дрон бесплатно
    Дрон скачать торрент в хорошем качестве
    Дрон смотреть онлайн бесплатно в хорошем качестве


    Вы не можете начинать темы
    Вы не можете отвечать на сообщения
    Вы не можете редактировать свои сообщения
    Вы не можете удалять свои сообщения
    Вы не можете голосовать в опросах
    Вы не можете прикреплять файлы к сообщениям
    Вы можете скачивать файлы