Ссылка на приватное зеркало нашего сайта всего за 1$. Внимание количество ограничено!!!

2 сезон

iTunes

1 сезон

1

2 сезон

2 сезон

iTunes

1 сезон

RePack

30

Ultimate

ВАЖНО

ИГРА 18+

pack

RePack

MK11
pack

Забери бонус

RePack

jed

!!Акция!!

Alien_Rage

RePack

fifa19

RePack

Assassins Creed: Odyssey

RePack

NEED FOR SPEED™ PAYBACK

4 сезон

9 сезон

Бесстыжие 9 сезон

Все сериалы

все сериалы на PB.wtf

RePack

FAR CRY 5
  

Поколение убийц / Generation Kill / Сезон: 1 / Серии: 1-7 из 7 (Сюзанна Уайт, Саймон Селлан Джоунс) [2008 , драма, военный, BDRip 720p] 2xMVO [5 канал / Звезда] [Гланц & Со. (Специальное Российское Издание)] pb.wtf

Поколение убийц через торрент pb.wtf

Размер: 31.98 GB | Добавлен: 3 года 5 мес. назад | Торрент скачан:127 раз
Скачать  

10-06-2017 14:37 Поколение убийц Скачать торрент  

Поколение убийц / Generation Kill
Сезон: 1 / Серии: 1-7 из 7

««The new face of American war»»

Год выпуска: 2008

Страна: США, Великобритания
Жанр: драма, военный

Продолжительность: 7х ~01:08:23
Перевод: Профессиональный многоголосый [5 канал / Звезда]; Профессиональный многоголосый [Гланц & Со. (Специальное Российское Издание)]
Субтитры: русские, английские
Режиссер: Сюзанна Уайт , Саймон Селлан Джоунс
В ролях:

Александр Скарсгард (Sgt. Brad «Iceman» Colbert), Джеймс Рэнсон (Cpl. Josh Ray Person), Ли Тергесен (Evan «Scribe» Wright), Старк Сэндс (Lt. Nathaniel Fick), Билли Лаш (Lance Cpl. Harold James Trombley), Эрик Неннингер (Cpt. Dave «Captain America» McGraw), Келлан Латс (Cpl. Jason Lilley), Джон Уэртас (Sgt. Antonio Espera), Руди Рейс (Sgt. Rodolfo «Rudy» Reyes), Йохан Лотан (Navy Hm2 Robert Timothy «Doc» Bryan), Уилсон Бетел (Cpl. Evan «Q-Tip» Stafford), Павел Шайда (Cpl. Walt Hasser)
Описание:
Вторжение американцев в Ирак в 2003 году глазами рядовых пехотинцев армии США. В центре повествования Первый Разведывательный батальон морской пехоты. В лагерь Матильда, Кувейт, прибывает журналист Эван Райт в исполнении старого знакомого Ли Тергесона, который будет сопровождать войска в их наступлении на столицу - город Багдад. Два месяца войны без прикрас.
Рейтинг:

Качество: BDRip 720p
Формат: MKV
Видео: AVC, 1280x720 (16:9), 8471 kbps, 23,976 fps, 0,383 bpp
Аудио №1: русский / AC3 / 2.0 / 48 kHz / 192 kbps / |MVO (5 канал / Звезда)|
Аудио №2: русский / AC3 / 5.1 / 48 kHz / 448 kbps / |MVO Гланц & Со. (Специальное Российское Издание)|
Аудио №3: английский / AC3 / 5.1 / 48 kHz / 448 kbps /
General
Unique ID : 246799630112107939201226731652738602771 (0xB9ABE139E52A196F8FE49919F2365713)
Complete name : E:\Pokolenie.Ubiyc.(1.sezon).2008.x264.BDRip.720p_MediaClub\Pokolenie.Ubiyc.(1.seria.iz.7).2008.x264.BDRip.720p_MediaClub.mkv
Format : Matroska
Format version : Version 4 / Version 2
File size : 4.57 GiB
Duration : 1 h 8 min
Overall bit rate : 9 563 kb/s
Movie name : ReJIiZ MediaClub by BenderBEST
Encoded date : UTC 2014-02-02 14:15:38
Writing application : mkvmerge v6.5.0 ('Isn't she lovely') built on Oct 20 2013 12:50:05
Writing library : libebml v1.3.0 + libmatroska v1.4.1

Video
ID : 1
Format : AVC
Format/Info : Advanced Video Codec
Format profile : High@L4.1
Format settings, CABAC : Yes
Format settings, ReFrames : 6 frames
Codec ID : V_MPEG4/ISO/AVC
Duration : 1 h 8 min
Bit rate : 8 471 kb/s
Width : 1 280 pixels
Height : 720 pixels
Display aspect ratio : 16:9
Frame rate mode : Constant
Frame rate : 23.976 (24000/1001) FPS
Color space : YUV
Chroma subsampling : 4:2:0
Bit depth : 8 bits
Scan type : Progressive
Bits/(Pixel*Frame) : 0.383
Stream size : 3.96 GiB (87%)
Writing library : x264 core 68 r1179M 96e2229
Encoding settings : cabac=1 / ref=6 / deblock=1:-3:-3 / analyse=0x3:0x113 / me=tesa / subme=9 / psy_rd=1.0:0.0 / mixed_ref=1 / me_range=16 / chroma_me=1 / trellis=2 / 8x8dct=1 / cqm=0 / deadzone=21,11 / chroma_qp_offset=-2 / threads=6 / nr=0 / decimate=0 / mbaff=0 / bframes=6 / b_pyramid=1 / b_adapt=2 / b_bias=0 / direct=3 / wpredb=1 / keyint=250 / keyint_min=25 / scenecut=40 / rc=2pass / bitrate=8471 / ratetol=1.0 / qcomp=0.60 / qpmin=10 / qpmax=51 / qpstep=4 / cplxblur=20.0 / qblur=0.5 / ip_ratio=1.40 / pb_ratio=1.30 / aq=1:0.80
Language : English
Default : Yes
Forced : No

Audio #1
ID : 2
Format : AC-3
Format/Info : Audio Coding 3
Mode extension : CM (complete main)
Format settings, Endianness : Big
Codec ID : A_AC3
Duration : 1 h 8 min
Bit rate mode : Constant
Bit rate : 192 kb/s
Channel(s) : 2 channels
Channel positions : Front: L R
Sampling rate : 48.0 kHz
Frame rate : 31.250 FPS (1536 spf)
Compression mode : Lossy
Stream size : 93.9 MiB (2%)
Title : 5 канал
Language : Russian
Default : Yes
Forced : No

Audio #2
ID : 3
Format : AC-3
Format/Info : Audio Coding 3
Mode extension : CM (complete main)
Format settings, Endianness : Big
Codec ID : A_AC3
Duration : 1 h 8 min
Bit rate mode : Constant
Bit rate : 448 kb/s
Channel(s) : 6 channels
Channel positions : Front: L C R, Side: L R, LFE
Sampling rate : 48.0 kHz
Frame rate : 31.250 FPS (1536 spf)
Compression mode : Lossy
Stream size : 219 MiB (5%)
Title : П.Гланц
Language : Russian
Default : No
Forced : No

Audio #3
ID : 4
Format : AC-3
Format/Info : Audio Coding 3
Mode extension : CM (complete main)
Format settings, Endianness : Big
Codec ID : A_AC3
Duration : 1 h 8 min
Bit rate mode : Constant
Bit rate : 448 kb/s
Channel(s) : 6 channels
Channel positions : Front: L C R, Side: L R, LFE
Sampling rate : 48.0 kHz
Frame rate : 31.250 FPS (1536 spf)
Compression mode : Lossy
Stream size : 219 MiB (5%)
Language : English
Default : No
Forced : No

Text #1
ID : 5
Format : UTF-8
Codec ID : S_TEXT/UTF8
Codec ID/Info : UTF-8 Plain Text
Language : Russian
Default : Yes
Forced : No

Text #2
ID : 6
Format : UTF-8
Codec ID : S_TEXT/UTF8
Codec ID/Info : UTF-8 Plain Text
Language : English
Default : No
Forced : No
pb.wtf
K-Lexx- писал(а):

Залито по заказу.



Скачать Поколение убийц через торрент http://i6.imageban.ru/out/2017/06/10/ed7eb5394a1761ddb4d7cdb62bb61b2c.jpg Скачать фильм Поколение убийц через торрент бесплантно в хорошем качестве Описание: Вторжение американцев в Ирак в 2003 году глазами рядовых пехотинцев армии США. В центре повествования Первый Разведывательный ... 10 10 7
Info! Золотая раздача, скачанное не засчитывается.
Торрент: Зарегистрирован [2017-06-10 14:37] · скачан: 127 раз
Статус: √ проверено
Размер: 31.98 GB
Как cкачать? Как скачать Поколение убийц через торрент | qTorrent

% Раздел Тема Автор DL S | L
Зарубежные сериалы [ 16.42 GB ] Поколение убийц / Generation Kill / Сезон: 1 / Серии: 1-7 из 7 [2008 военный BDRip-AVC] 2x[MVO] + [VO] killermax2013 Скачать
1 | 0
Зарубежные сериалы [ 14.64 GB ] Поколение убийц / Generation Kill / Сезон: 1 / Серии: 1-7 из 7 [2008 военный BDRip 1080p-HEVC 10bit] MVO [Гланц & Со. ] ADVOKAT69 Скачать
1 | 0
Зарубежные сериалы [ 10.95 GB ] Поколение убийц / Generation Kill / Сезон: 1 / Серии: 1-7 из 7 [2008 военный BDRip] 2xMVO [5 канал / Звезда] [Гланц & Со. ] VO [1001 cinema] -Lexx- Скачать
1 | 0

28-11-2019 20:33  

Отключить всю рекламу на сайте

10-06-2017 14:48 Поколение убийц Скачать торрент  

Отличный сериал, советую.pb.wtf



10-06-2017 16:44 Поколение убийц Скачать торрент  

Огромное спасибо, товарищ!pb.wtf
K-Lexx- писал(а):

Приятного просмотра.



12-06-2017 20:46 Поколение убийц Скачать торрент  

32 г это круто Может есть поменьше .pb.wtf


    Дорогой пользователь! Огромная просьба, поблагодарите релизера, оцените раздачу и оставьте свои комментарий, если Вы скачали Поколение убийц через торрент бесплатно! Внесите свою лепту в развитие PiratBit!
    Комментировать посты могут только пользователи прошедшие не сложную регистрацию
    Показать сообщения:    

    Поколение убийц через торрент
    Скачать бесплатно Поколение убийц
    Поколение убийц скачать торрент
    Поколение убийц смотреть онлайн
    Cкачать фильм Поколение убийц бесплатно
    Поколение убийц скачать торрент в хорошем качестве
    Поколение убийц смотреть онлайн бесплатно в хорошем качестве


    Вы не можете начинать темы
    Вы не можете отвечать на сообщения
    Вы не можете редактировать свои сообщения
    Вы не можете удалять свои сообщения
    Вы не можете голосовать в опросах
    Вы не можете прикреплять файлы к сообщениям
    Вы можете скачивать файлы