MEGA NEWS Получи личный уникальный адрес сайта и защити себя от блокировок. Внимание количество ограничено!!!

iTunes

1+1

iTunes

мы

iTunes

1

iTunes

Чернобыль

iTunes

Ральф против интернета

Лицензия

ПШазам

Лицензия

Игра престолов

Лицензия

30
pack

ВАЖНО

!!Акция!!

Alien_RageХит недели

RePack

Resident Evil 21

ИГРА 18+

pack

RePack

Metro:Exodus

!!Акция!!

Alien_Rage

RePack

fifa19

RePack

Assassins Creed: Odyssey

RePack

NEED FOR SPEED™ PAYBACK

3 сезон

9 сезон

Бесстыжие 9 сезон

Все сериалы

все сериалы на PB.wtf

RePack

FAR CRY 5
Ребята, катастрофически не хватает 1900р. для оплаты серверов за АВГУСТ (всвязи с блокировками трафик упал в 3 раза), 1-2р., выручайте.
  

Старший Фершо / L'aine des Ferchaux (Жан-Пьер Мельвиль) [1963 г., Драма, криминал, DVDRip-AVC, Профессиональный (двухголосый)] от ExKinoRay pb.wtf

Старший Фершо через торрент pb.wtf

Размер: 1.18 GB | Добавлен: 2 года 4 мес. назад | Торрент скачан:4 раза
Скачать  

10-06-2017 20:50 Старший Фершо Скачать торрент  

Старший Фершо / L'aine des Ferchaux
Год выпуска: 1963
Страна: Франция, Италия
Жанр: Драма, криминал
Продолжительность: 01:40:37
Перевод: Профессиональный (двухголосый)

Режиссер: Жан-Пьер Мельвиль

Премьера в мире: 25 сентября 1963

rating

В ролях: Жан-Поль Бельмондо, Шарль Ванель, Мишель Мерсье, Мальвина Сильберберг, Стефания Сандрелли, Барбара Соммерс

Описание: Моде и Фершо нечего терять: они оба волки одиночки, оба хищники по жизни, оба не имеют ни чувств, ни моральных устоев. Моде бросает свою подружку за стойкой кафе, не попрощавшись. Фершо, более того — родного брата, который понимая подлость едва ли не самого близкого человека, кончает с собой. И вот они летят в Америку. Страну мечты, а там недалеко и до Венесуэлы. Как говорит старик — Фершо: «Европа — это ненадежно: война, революции, или неровен час, коммунизм наступит». Забрав деньги, раскиданные эксцентричным стариком едва ли не по банкам всех стран мира, боясь, что их арестуют, когда они будут садиться в самолет, Фершо и Моде отправляются в автомобильное путешествие на юг… Путешествие, полное происшествий, споров, влюбленностей Мишеля Моде и разочарований Фершо…

Качество: DVDRip-AVC
Формат: MKV
Видео кодек: MPEG4
Аудио кодек: AC3
Видео: MPEG-4, 1300 Кбит/с, 664x324@708x324, 25,000 кадров/сек
Аудио#1: Русский (AC3, 2 ch, 192 Кбит/с, 48,0 КГц)
Аудио#2: Французский (AC3, 2 ch, 192 Кбит/с, 48,0 КГц)
Релиз от:





raw [info]: 664x324p 16:15 @ 25/1 fps (cfr)
x264 [info]: using SAR=16/15
x264 [info]: using cpu capabilities: MMX2 SSE2Fast LZCNT
x264 [info]: profile High, level 4.1
x264 [info]: frame I:814 Avg QP:13.83 size: 40112
x264 [info]: frame P:33413 Avg QP:16.57 size: 14082
x264 [info]: frame B:116704 Avg QP:19.05 size: 4094
x264 [info]: consecutive B-frames: 1.7% 2.4% 12.6% 17.6% 13.2% 46.5% 3.7% 0.9% 0.8% 0.2% 0.2% 0.1% 0.0% 0.0% 0.0% 0.0% 0.0%
-----
Общее
Уникальный идентификатор : 253777303519982070025867753637743246737 (0xBEEBBB1611B2651FA01B6C69E8C13D91)
Полное имя : E:\Ferchaux.1963.DVDRip-AVC.ExKinoRay.mkv
Формат : Matroska
Версия формата : Version 2
Размер файла : 1,18 Гбайт
Продолжительность : 1 ч. 40 м.
Общий поток : 1686 Кбит/сек
Дата кодирования : UTC 2017-06-10 14:06:29
Программа кодирования : mkvmerge v7.8.0 ('River Man') 32bit built on Apr 3 2015 12:11:22
Библиотека кодирования : libebml v1.3.1 + libmatroska v1.4.2

Видео
Идентификатор : 1
Формат : AVC
Формат/Информация : Advanced Video Codec
Профиль формата : High@L4.1
Параметр CABAC формата : Да
Параметр ReFrames формата : 14 кадров
Идентификатор кодека : V_MPEG4/ISO/AVC
Продолжительность : 1 ч. 40 м.
Битрейт : 1300 Кбит/сек
Ширина : 664 пикселя
Высота : 324 пикселя
Соотношение сторон : 2,2:1
Соотношение сторон в оригинале : 2,2:1
Режим частоты кадров : Постоянный
Частота кадров : 25,000 кадров/сек
Цветовое пространство : YUV
Субдискретизация насыщенности : 4:2:0
Битовая глубина : 8 бит
Тип развёртки : Прогрессивная
Бит/(Пиксели*Кадры) : 0.242
Размер потока : 913 Мбайт (75%)
Библиотека кодирования : x264 core 148 r2638 7599210
Настройки программы : cabac=1 / ref=14 / deblock=1:-2:-2 / analyse=0x3:0x133 / me=umh / subme=10 / psy=1 / psy_rd=1.05:0.15 / mixed_ref=1 / me_range=32 / chroma_me=1 / trellis=2 / 8x8dct=1 / cqm=0 / deadzone=21,11 / fast_pskip=0 / chroma_qp_offset=-3 / threads=4 / lookahead_threads=1 / sliced_threads=0 / nr=0 / decimate=0 / interlaced=0 / bluray_compat=0 / constrained_intra=0 / bframes=16 / b_pyramid=2 / b_adapt=2 / b_bias=0 / direct=3 / weightb=1 / open_gop=0 / weightp=2 / keyint=250 / keyint_min=25 / scenecut=40 / intra_refresh=0 / rc=2pass / mbtree=0 / bitrate=1300 / ratetol=1.0 / qcomp=0.60 / qpmin=0 / qpmax=69 / qpstep=4 / cplxblur=20.0 / qblur=0.5 / ip_ratio=1.40 / pb_ratio=1.30 / aq=1:1.00
Язык : English
Default : Да
Forced : Нет
Цветовой диапазон : Limited
Основные цвета : BT.601 NTSC
Характеристики трансфера : BT.601
Коэффициенты матрицы : BT.601

Аудио #1
Идентификатор : 2
Формат : AC-3
Формат/Информация : Audio Coding 3
Расширение режима : CM (complete main)
Параметр Endianness формата : Big
Идентификатор кодека : A_AC3
Продолжительность : 1 ч. 40 м.
Вид битрейта : Постоянный
Битрейт : 192 Кбит/сек
Каналы : 2 канала
Расположение каналов : Front: L R
Частота : 48,0 КГц
Частота кадров : 31,250 кадров/сек (1536 spf)
Метод сжатия : С потерями
Размер потока : 138 Мбайт (11%)
Язык : Russian
Default : Да
Forced : Нет

Аудио #2
Идентификатор : 3
Формат : AC-3
Формат/Информация : Audio Coding 3
Расширение режима : CM (complete main)
Параметр Endianness формата : Big
Идентификатор кодека : A_AC3
Продолжительность : 1 ч. 40 м.
Вид битрейта : Постоянный
Битрейт : 192 Кбит/сек
Каналы : 2 канала
Расположение каналов : Front: L R
Частота : 48,0 КГц
Частота кадров : 31,250 кадров/сек (1536 spf)
Метод сжатия : С потерями
Размер потока : 138 Мбайт (11%)
Язык : French
Default : Нет
Forced : Нет

pb.wtf



Скачать Старший Фершо через торрент http://s016.radikal.ru/i337/1706/19/243c2d3290d4.jpg Скачать фильм Старший Фершо через торрент бесплантно в хорошем качестве Описание: Моде и Фершо нечего терять: они оба волки одиночки, оба хищники по жизни, оба не имеют ни чувств, ни моральных устоев. Моде ... 10 10 3
Info! Золотая раздача, скачанное не засчитывается.
Торрент: Зарегистрирован [2017-06-10 20:50] · скачан: 4 раз
Статус: √ проверено
Размер: 1.18 GB
Как cкачать? Как скачать Старший Фершо через торрент | qTorrent


>> Регистрируемся здесь <<






Отзывы и комментарии о схеме читаем и пишем здесь: ---> Отзывы и комментарии о схеме

Новые благодарочки в телеграм довольных пользователей:
скриншот   скриншот   скриншот   скриншот   скриншот
    Дорогой пользователь! Огромная просьба, поблагодарите релизера, оцените раздачу и оставьте свои комментарий, если Вы скачали Старший Фершо через торрент бесплатно! Внесите свою лепту в развитие PiratBit!
    Комментировать посты могут только пользователи прошедшие не сложную регистрацию
    Показать сообщения:    

    Старший Фершо через торрент
    Скачать бесплатно Старший Фершо
    Старший Фершо скачать торрент
    Старший Фершо смотреть онлайн
    Cкачать фильм Старший Фершо бесплатно
    Старший Фершо скачать торрент в хорошем качестве
    Старший Фершо смотреть онлайн бесплатно в хорошем качестве


    Вы не можете начинать темы
    Вы не можете отвечать на сообщения
    Вы не можете редактировать свои сообщения
    Вы не можете удалять свои сообщения
    Вы не можете голосовать в опросах
    Вы не можете прикреплять файлы к сообщениям
    Вы можете скачивать файлы