Ссылка на приватное зеркало нашего сайта всего за 1$. Внимание количество ограничено!!!

2 сезон

iTunes

1 сезон

1

2 сезон

2 сезон

iTunes

1 сезон

RePack

30

Ultimate

ВАЖНО

ИГРА 18+

pack

RePack

MK11
pack

Забери бонус

RePack

jed

!!Акция!!

Alien_Rage

RePack

fifa19

RePack

Assassins Creed: Odyssey

RePack

NEED FOR SPEED™ PAYBACK

4 сезон

9 сезон

Бесстыжие 9 сезон

Все сериалы

все сериалы на PB.wtf

RePack

FAR CRY 5
  

Вайнона Эрп / Wynonna Earp / Сезон: 2 / Серии 1-12 из 12 (Паоло Барзмен / Paolo Barzman, Рон Мерфи / Ron Murphy, Питер Стеббингс / Peter Stebbings) [2017 , Канада, США, фэнтези, боевик, триллер, WEB-DLRip-AVC] MVO [BaibaKo] pb.wtf

Вайнона Эрп через торрент pb.wtf

Размер: 9.43 GB | Добавлен: 3 года 3 мес. назад | Торрент скачан:16 раз
Скачать  

11-06-2017 02:02 Вайнона Эрп Скачать торрент  


Вайнона Эрп / Wynonna Earp

«У каждого есть демоны. Она дает им отпор»


  • Год выпуска: 2017
  • Страна: Канада, США
  • Жанр: фэнтези, боевик, триллер, драма, детектив, вестерн
  • Продолжительность: 00:42:40
  • Перевод: Профессиональный многоголосый [BaibaKo]
  • Режиссер: Паоло Барзмен / Paolo Barzman, Рон Мерфи / Ron Murphy, Питер Стеббингс / Peter Stebbings
  • В ролях:

    Мелани Скрофано (Wynonna Earp), Тим Розон (Doc Holliday), Доминик Провост-Чалкли (Waverly Earp), Шамир Андерсон (Agent Dolls), Майкл Эклунд (Bobo Del Rey), Кэтерин Баррелл (Nicole Haught), Грег Лосон (Sheriff Nedley), Natascha Girgis (Gus), Dylan Koroll (Hardy Champ), Анна Куик (Young Willa Earp), Натали Крилл (Eve), Раиса Кондраки (Constance Clootie)


  • Вайнона Эрп – правнучка известного стража закона времен Дикого запада, героя нескольких фильмов и книг Уайетта Эрпа, особенно прославившегося по событиям в городке старателей Тумстоун. Созданный в жанре современного вестерна с примесью мистики сериал рассказывает о том, как наследница шерифа вершит собственное правосудие. Эта отважная девушка, прославившаяся своей меткостью и диким нравом, использует свои уникальные способности, чтобы в компании верных ей союзников ставить на место разного рода демонов и иных существ из потустороннего мира. P.S. Особенность сериала - все имена Эрпов в оригинале начинаются на W. Чтобы сохранить эту особенность и в переводе, они озвучены, как Уайнона, Уилла, Уайетт, Уэйверли.
  • Рейтинг:



  • Качество: WEB-DLRip-AVC
  • Формат: :MPEG-4
  • Видео кодек: AVC
  • Аудио кодек: AC3
  • Видео: 1024x572 (16:9), 1868 kbps, 23,976 fps, 0,133 bpp
  • Аудио №1: русский / 5.1 / 48 kHz / 384 kbps / 16 bit |[BaibaKo]|
  • Аудио №2: английский / 5.1 / 48 kHz / 384 kbps / 16 bit
  • Релиз от: GEKADOL

    Внимание! Раздача ведётся путём добавления новых серий; при каждом добавлении создаётся новый торрент. Чтобы начать докачку новой серии, пользователям необходимо сделать следующее:
    (1) остановить скачивание,
    (2) удалить старый торрент у себя из клиента (старые серии удалять не надо),
    (3) скачать новый торрент и запустить его у себя в клиенте вместо старого, при этом указать клиенту путь в старую папку куда и должно происходить скачивание новых серий.
    Ваш клиент при этом должен произвести хеширование (проверку) старой папки (если не производит сам - помогите ему сделать это), и будет докачивать только те серии которых у вас ещё нет. Старые серии при этом не удаляются, а продолжают раздаваться!
    Eсли вы уже удалили старые серии, то предотвратить повторную закачку старых серий можно, отжав галочку в соответствующих местах при запуске нового торрента. По возможности, желательно не удалять старые серии как можно дольше чтобы релизёр не столько продолжал раздавать старые серии, а смог сконцентрироваться на новых.

    General
    Complete name : F:\Вайнона Эрп (Wynonna Earp 2)\Wynonna.Earp.s02e01.WEB-DLRip-AVC.Rus.Eng.BaibaKo.tv.mp4
    Format : MPEG-4
    Format profile : Base Media
    Codec ID : isom (isom/iso2/avc1/mp41)
    File size : 806 MiB
    Duration : 42 min
    Overall bit rate : 2 642 kb/s
    Writing application : XviD4PSP 7.0.389 DAILY
    HDVideo : Yes
    encoding_info : MATROSKA / WEBM > MP4 Произвольный / H264 > X264 CBR 2000kbps HQ / AC3 > AC3 CBR 384kbps / AC3 > AC3 CBR 384kbps

    Video
    ID : 1
    Format : AVC
    Format/Info : Advanced Video Codec
    Format profile : High@L3.1
    Format settings, CABAC : Yes
    Format settings, ReFrames : 4 frames
    Codec ID : avc1
    Codec ID/Info : Advanced Video Coding
    Duration : 42 min
    Bit rate : 1 869 kb/s
    Nominal bit rate : 2 000 kb/s
    Width : 1 024 pixels
    Height : 572 pixels
    Display aspect ratio : 16:9
    Frame rate mode : Constant
    Frame rate : 23.976 (24000/1001) FPS
    Color space : YUV
    Chroma subsampling : 4:2:0
    Bit depth : 8 bits
    Scan type : Progressive
    Bits/(Pixel*Frame) : 0.133
    Stream size : 570 MiB (71%)
    Writing library : x264 core 150 r2833M df79067
    Encoding settings : cabac=1 / ref=3 / deblock=1:-1:-1 / analyse=0x3:0x133 / me=hex / subme=7 / psy=1 / psy_rd=1.00:0.20 / mixed_ref=1 / me_range=16 / chroma_me=1 / trellis=1 / 8x8dct=1 / cqm=0 / deadzone=21,11 / fast_pskip=1 / chroma_qp_offset=-3 / threads=5 / lookahead_threads=1 / sliced_threads=0 / nr=0 / decimate=1 / interlaced=0 / bluray_compat=0 / constrained_intra=0 / bframes=3 / b_pyramid=2 / b_adapt=2 / b_bias=0 / direct=3 / weightb=1 / open_gop=0 / weightp=2 / keyint=230 / keyint_min=23 / scenecut=40 / intra_refresh=0 / rc_lookahead=40 / rc=cbr / mbtree=1 / bitrate=2000 / ratetol=1.0 / qcomp=0.60 / qpmin=0 / qpmax=69 / qpstep=4 / vbv_maxrate=2000 / vbv_bufsize=1428 / nal_hrd=none / filler=0 / ip_ratio=1.40 / aq=1:1.00
    Color range : Limited
    Color primaries : BT.709
    Transfer characteristics : BT.709
    Matrix coefficients : BT.709

    Audio #1
    ID : 2
    Format : AC-3
    Format/Info : Audio Coding 3
    Mode extension : CM (complete main)
    Format settings, Endianness : Big
    Codec ID : ac-3
    Duration : 42 min
    Bit rate mode : Constant
    Bit rate : 384 kb/s
    Channel(s) : 6 channels
    Channel positions : Front: L C R, Side: L R, LFE
    Sampling rate : 48.0 kHz
    Frame rate : 31.250 FPS (1536 spf)
    Bit depth : 16 bits
    Compression mode : Lossy
    Stream size : 117 MiB (15%)
    Language : Russian
    Default : Yes
    Alternate group : 1

    Audio #2
    ID : 3
    Format : AC-3
    Format/Info : Audio Coding 3
    Mode extension : CM (complete main)
    Format settings, Endianness : Big
    Codec ID : ac-3
    Duration : 42 min
    Bit rate mode : Constant
    Bit rate : 384 kb/s
    Channel(s) : 6 channels
    Channel positions : Front: L C R, Side: L R, LFE
    Sampling rate : 48.0 kHz
    Frame rate : 31.250 FPS (1536 spf)
    Bit depth : 16 bits
    Compression mode : Lossy
    Stream size : 117 MiB (15%)
    Language : English
    Default : No
    Alternate group : 1



    скриншот   скриншот   скриншот   скриншот   скриншот   скриншот   скриншот  
    скриншот  

    Раздача ведётся путём добавления новых серий. Добавлена 12 серия (28.08.2017).Просьба перекачать торрент файл.

    pb.wtf



  • Скачать Вайнона Эрп через торрент http://pic1.kartinco.top/images/11/tz9sj.jpg Скачать фильм Вайнона Эрп через торрент бесплантно в хорошем качестве qw.png Вайнона Эрп – правнучка известного стража закона времен Дикого запада, героя нескольких фильмов и книг Уайетта Эрпа, особенно ... 9.4 10 11
    Info! Золотая раздача, скачанное не засчитывается.
    Торрент: Зарегистрирован [2017-08-28 01:01] · скачан: 16 раз
    Статус: √ проверено
    Размер: 9.43 GB
    Как cкачать? Как скачать Вайнона Эрп через торрент | qTorrent

    % Раздел Тема Автор DL S | L
    Зарубежные сериалы [ 6.45 GB ] Вайнона Эрп / Wynonna Earp / Сезон 2 / Серии 1-12 из 12 [2017 WEBRip] MVO [Jaskier] bober100 Скачать
    1 | 0

    28-11-2019 20:33  

    Отключить всю рекламу на сайте

      Дорогой пользователь! Огромная просьба, поблагодарите релизера, оцените раздачу и оставьте свои комментарий, если Вы скачали Вайнона Эрп через торрент бесплатно! Внесите свою лепту в развитие PiratBit!
      Комментировать посты могут только пользователи прошедшие не сложную регистрацию
      Показать сообщения:    

      Вайнона Эрп через торрент
      Скачать бесплатно Вайнона Эрп
      Вайнона Эрп скачать торрент
      Вайнона Эрп смотреть онлайн
      Cкачать фильм Вайнона Эрп бесплатно
      Вайнона Эрп скачать торрент в хорошем качестве
      Вайнона Эрп смотреть онлайн бесплатно в хорошем качестве


      Вы не можете начинать темы
      Вы не можете отвечать на сообщения
      Вы не можете редактировать свои сообщения
      Вы не можете удалять свои сообщения
      Вы не можете голосовать в опросах
      Вы не можете прикреплять файлы к сообщениям
      Вы можете скачивать файлы