2 сезон

iTunes

MVO

1

2 сезон

iTunes

iTunes

1 сезон

RePack

30

Новинка

ВАЖНО

ИГРА 18+

pack

RePack

MK11
pack

Легкие деньги

RePack

jed

RePack

fifa19

RePack

RDR2

RePack

NEED FOR SPEED™ PAYBACK

4 сезон

9 сезон

Бесстыжие 9 сезон

Все сериалы

все сериалы на PB.wtf

RePack

FAR CRY 5

Anonymous, доброе утро, мы не успеваем собрать деньги на оплату серверов за декабрь и январь, помогите нам пожалуйста в это трудное время. В качестве благодарности мы отключим Вам всю рекламу на сайте (укажите свой ник в строку Ваше имя)!

×
  
Magnet ссылка

Дрон / Drone (Джейсон Бурк) [2017, триллер, WEB-DLRip-AVC] MVO [Студия "Paradox" & Omskbird records] - ExKinoRay pb.wtf

Дрон через торрент pb.wtf

Размер: 1.34 GB | Добавлен: 3 года 7 мес. назад | Торрент скачан:459 раз
Скачать  

11-06-2017 13:24 Дрон Скачать торрент  

Информация о фильме
Название: Дрон
Оригинальное название: Drone
Год выхода: 2017
Жанр: триллер
Выпущено: Канада / Gold Star Productions Inc.
Продолжительность: 01:30:54
Озвучивание: Любительское (многоголосое) [Студия "Paradox" & Omskbird records]
Субтитры: Aнглийские
Режиссер: Джейсон Бурк
В ролях: Шон Бин, Мэри МакКормак, Джоэль Мур, Патрик Сабонгуй, Шэрон Тейлор, Кирби Морроу, Брэдли Страйкер, Кевин О’Грэйди, Джон Эммет Трэйси, Максвелл Хэйнс

Описание: Опытный пилот дрона Нил работает по частному контракту, проводя свои трудовые дни на тайных боевых вылетах, а затем возвращается домой в типичный пригород к ничего не подозревающей семье. Но однажды его секрет раскрывает информационный сайт, выставляя Нила не в лучшем свете. Пакистанский бизнесмен, считающий пилота виновным в смерти жены и ребёнка, начинает его выслеживать, чтобы изощренно отомстить

rating

Без какой-либо рекламы.

Файл
Формат: MKV
Качество: WEB-DLRip-AVC
Видео: AVC, 1024х430 (2.40:1), 1380 kbps, 23,976 fps, 0,131 bpp
Аудио 1: 48 kHz, AC3, 2.0, 384 Kbps | RUS |
Аудио 2: 48 kHz, AC3, 5.1, 384 Kbps | ENG |

Навигация по главам: есть
General
Unique ID : 235657734677677526897377125545693833890 (0xB14A075E67142B23982DE93649F26AA2)
Complete name : D:\Drone.2017.WEB-DLRip.AVC.ExKinoRay.mkv
Format : Matroska
Format version : Version 2
File size : 1.34 GiB
Duration : 1 h 29 min
Overall bit rate : 2 149 kb/s
Movie name : Drone (2017) from ExKinoRay
Encoded date : UTC 2017-06-11 12:03:07
Writing application : mkvmerge v5.8.0 ('No Sleep / Pillow') built on Sep 2 2012 15:37:04
Writing library : libebml v1.2.3 + libmatroska v1.3.0

Video
ID : 1
Format : AVC
Format/Info : Advanced Video Codec
Format profile : High@L4.1
Format settings, CABAC : Yes
Format settings, ReFrames : 12 frames
Codec ID : V_MPEG4/ISO/AVC
Duration : 1 h 29 min
Bit rate : 1 380 kb/s
Width : 1 024 pixels
Height : 430 pixels
Display aspect ratio : 2.40:1
Frame rate mode : Constant
Frame rate : 23.976 (23976/1000) FPS
Color space : YUV
Chroma subsampling : 4:2:0
Bit depth : 8 bits
Scan type : Progressive
Bits/(Pixel*Frame) : 0.131
Stream size : 858 MiB (62%)
Title : Enigma
Writing library : x264 core 144 r2525 40bb568
Encoding settings : cabac=1 / ref=12 / deblock=1:-2:-2 / analyse=0x3:0x113 / me=umh / subme=10 / psy=1 / psy_rd=1.05:0.10 / mixed_ref=1 / me_range=32 / chroma_me=1 / trellis=2 / 8x8dct=1 / cqm=0 / deadzone=21,11 / fast_pskip=1 / chroma_qp_offset=-3 / threads=12 / lookahead_threads=2 / sliced_threads=0 / nr=0 / decimate=0 / interlaced=0 / bluray_compat=0 / constrained_intra=0 / bframes=9 / b_pyramid=2 / b_adapt=2 / b_bias=0 / direct=3 / weightb=1 / open_gop=0 / weightp=2 / keyint=240 / keyint_min=23 / scenecut=40 / intra_refresh=0 / rc_lookahead=40 / rc=2pass / mbtree=0 / bitrate=1380 / ratetol=1.0 / qcomp=0.60 / qpmin=0 / qpmax=51 / qpstep=4 / cplxblur=20.0 / qblur=0.5 / vbv_maxrate=50000 / vbv_bufsize=62500 / nal_hrd=none / filler=0 / ip_ratio=1.40 / pb_ratio=1.30 / aq=1:1.00
Language : English
Default : Yes
Forced : No
Color range : Limited
Color primaries : BT.709
Transfer characteristics : BT.709
Matrix coefficients : BT.709

Audio #1
ID : 2
Format : AC-3
Format/Info : Audio Coding 3
Mode extension : CM (complete main)
Format settings, Endianness : Big
Codec ID : A_AC3
Duration : 1 h 29 min
Bit rate mode : Constant
Bit rate : 384 kb/s
Channel(s) : 2 channels
Channel positions : Front: L R
Sampling rate : 48.0 kHz
Frame rate : 31.250 FPS (1536 spf)
Compression mode : Lossy
Stream size : 246 MiB (18%)
Title : MVO (Paradox)
Language : Russian
Default : Yes
Forced : Yes

Audio #2
ID : 3
Format : AC-3
Format/Info : Audio Coding 3
Mode extension : CM (complete main)
Format settings, Endianness : Big
Codec ID : A_AC3
Duration : 1 h 29 min
Bit rate mode : Constant
Bit rate : 384 kb/s
Channel(s) : 6 channels
Channel positions : Front: L C R, Side: L R, LFE
Sampling rate : 48.0 kHz
Frame rate : 31.250 FPS (1536 spf)
Compression mode : Lossy
Stream size : 246 MiB (18%)
Title : English
Language : English
Default : No
Forced : No

Text
ID : 4
Format : UTF-8
Codec ID : S_TEXT/UTF8
Codec ID/Info : UTF-8 Plain Text
Language : English
Default : No
Forced : No

Menu
00:00:00.000 : en:Chapter 1
00:10:04.604 : en:Chapter 2
00:19:26.165 : en:Chapter 3
00:31:26.885 : en:Chapter 4
00:40:17.415 : en:Chapter 5
00:51:16.073 : en:Chapter 6
00:59:41.578 : en:Chapter 7
01:10:32.228 : en:Chapter 8
01:20:32.828 : en:Chapter 9
01:26:29.184 : en:Chapter 10
Релиз от:

Автор релиза: pb.wtf



Скачать Дрон через торрент http://i95.fastpic.ru/big/2017/0527/e5/6a6cb65508061c432b15e60f6b9434e5.jpg Скачать фильм Дрон через торрент бесплантно в хорошем качестве Описание: Опытный пилот дрона Нил работает по частному контракту, проводя свои трудовые дни на тайных боевых вылетах, а затем возвращается ... 9.3 10 12
Info! Золотая раздача, скачанное не засчитывается.
Торрент: Зарегистрирован [2017-06-11 13:24] · скачан: 459 раз
Статус: T временная
Размер: 1.34 GB
Как cкачать? Как скачать Дрон через торрент | UTorrent

% Раздел Тема Автор DL S | L
T Фильмы 2017 [DVDrip, WEB-DLRip, HDrip] (DUB, MVO) [ 1.26 GB ] Дрон / Drone [2017 HDRip-AVC] MVO [Студия "Paradox" & Omskbird records] - ExKinoRay Enigma2010 Скачать
1 | 0

28-11-2019 20:33  

Отключить всю рекламу на сайте

    Дорогой пользователь! Огромная просьба, поблагодарите релизера, оцените раздачу и оставьте свои комментарий, если Вы скачали Дрон через торрент бесплатно! Внесите свою лепту в развитие PiratBit!
    Комментировать посты могут только пользователи прошедшие не сложную регистрацию
    Показать сообщения:    

    Дрон через торрент
    Скачать бесплатно Дрон
    Дрон скачать торрент
    Дрон смотреть онлайн
    Cкачать фильм Дрон бесплатно
    Дрон скачать торрент в хорошем качестве
    Дрон смотреть онлайн бесплатно в хорошем качестве


    Вы не можете начинать темы
    Вы не можете отвечать на сообщения
    Вы не можете редактировать свои сообщения
    Вы не можете удалять свои сообщения
    Вы не можете голосовать в опросах
    Вы не можете прикреплять файлы к сообщениям
    Вы можете скачивать файлы