2 сезон

iTunes

MVO

1

2 сезон

iTunes

iTunes

1 сезон

RePack

30

Ultimate

ВАЖНО

ИГРА 18+

pack

RePack

MK11
pack

Легкие деньги

RePack

jed

RePack

fifa19

RePack

RDR2

RePack

NEED FOR SPEED™ PAYBACK

4 сезон

9 сезон

Бесстыжие 9 сезон

Все сериалы

все сериалы на PB.wtf

RePack

FAR CRY 5

Anonymous, доброе утро, мы не успеваем собрать деньги на оплату серверов за декабрь и январь, помогите нам пожалуйста в это трудное время. В качестве благодарности мы отключим Вам всю рекламу на сайте (укажите свой ник в строку Ваше имя)!

×
  
Magnet ссылка

Живое / Life (Даниэль Эспиноса) [2017 г., Ужасы, фантастика, триллер, HDRip, Дубляж "iTunes"] pb.wtf

Живое через торрент pb.wtf

Размер: 2.08 GB | Добавлен: 3 года 7 мес. назад | Торрент скачан:1009 раз
Скачать  

11-06-2017 18:25 Живое Скачать торрент  

Живое / Life
Год выпуска: 2017
Страна: США / Columbia Pictures, Skydance Media, Sony Pictures Entertainment (SPE)
Жанр: Ужасы, фантастика, триллер
Продолжительность: 01:43:59
Перевод: Дубляж (iTunes)
Субтитры: Русские форсированные - вшитые

Режиссер: Даниэль Эспиноса

rating

В ролях: Джейк Джилленхол, Ребекка Фергюсон (II), Райан Рейнольдс, Ольга Дыховичная, Эрион Бакаре, Хироюки Санада, Наоко Мори, Александр Нгуйен, Камиль Уоррен-Тейлор, Хиу Ун-Син

Описание: Международная космическая станция. Наши дни. С Марса прилетает модуль с образцами пород, куда совершенно случайно затесалась тамошняя инфузория-тапочка в свежезамороженном состоянии. Команда исследователей с упоением начинает издеваться над чужеродным организмом: помещает его в кислотную среду, кормит денатуратом с ложечки, бьет электрическим шокером и поджаривает лазерным резаком. В результате перенесенных потрясений инопланетный гость превращается в агрессивно настроенного пожирателя мозгов, выбирается из инкубатора и устраивает экипажу станции веселую жизнь.

Качество: HDRip
Формат: AVI
Видео кодек: XviD
Аудио кодек: AC3
Видео: 720x304 (2.37:1), 23.976 fps, XviD build 50 ~2472 kbps avg, 0.47 bit/pixel
Аудио: 48 kHz, AC3 Dolby Digital, 3/2 (L,C,R,l,r) + LFE ch, ~384 kbps

Общее
Полное имя : F:\ФИЛЬМЫ\Живое.2017.D.HDRip.avi
Формат : AVI
Формат/Информация : Audio Video Interleave
Профиль формата : OpenDML
Размер файла : 2,08 Гбайт
Продолжительность : 1 ч. 43 м.
Общий поток : 2863 Кбит/сек
Программа кодирования : VirtualDubMod 1.5.10.3 | www.virtualdub-fr.org || (build 2550/release)
Библиотека кодирования : VirtualDubMod build 2550/release

Видео
Идентификатор : 0
Формат : MPEG-4 Visual
Профиль формата : Advanced Simple@L5
Параметр BVOP формата : 1
Параметр QPel формата : Нет
Параметр GMC формата : Без точки перехода
Параметр матрицы формата : Default (MPEG)
Идентификатор кодека : XVID
Идентификатор кодека/Подсказка : XviD
Продолжительность : 1 ч. 43 м.
Битрейт : 2467 Кбит/сек
Ширина : 720 пикселей
Высота : 304 пикселя
Соотношение сторон : 2,35:1
Частота кадров : 23,976 (24000/1001) кадра/сек
Цветовое пространство : YUV
Субдискретизация насыщенности : 4:2:0
Битовая глубина : 8 бит
Тип развёртки : Прогрессивная
Метод сжатия : С потерями
Бит/(Пиксели*Кадры) : 0.470
Размер потока : 1,79 Гбайт (86%)
Библиотека кодирования : XviD 1.2.1 (UTC 2008-12-04)

Аудио
Идентификатор : 1
Формат : AC-3
Формат/Информация : Audio Coding 3
Параметр Endianness формата : Big
Идентификатор кодека : 2000
Продолжительность : 1 ч. 43 м.
Вид битрейта : Постоянный
Битрейт : 384 Кбит/сек
Каналы : 6 каналов
Расположение каналов : Front: L C R, Side: L R, LFE
Частота : 48,0 КГц
Частота кадров : 31,250 кадров/сек (1536 spf)
Битовая глубина : 16 бит
Метод сжатия : С потерями
Размер потока : 286 Мбайт (13%)
Выравнивание : Разделение по промежуткам
Продолжительность промежутка : 42 мс. (1,00 видеокадр)
Время предзагрузки промежутка : 500 мс.
ServiceKind/String : Complete Main

pb.wtf



Скачать Живое через торрент http://pic1.kartinco.top/images/11/ybkav.jpg Скачать фильм Живое через торрент бесплантно в хорошем качестве Описание: Международная космическая станция. Наши дни. С Марса прилетает модуль с образцами пород, куда совершенно случайно затесалась ... 8.8 10 15
Info! Золотая раздача, скачанное не засчитывается.
Торрент: Зарегистрирован [2017-06-11 18:25] · скачан: 1 009 раз
Статус: √ проверено
Размер: 2.08 GB
Как cкачать? Как скачать Живое через торрент | UTorrent

% Раздел Тема Автор DL S | L
Порно фильмы с сюжетом [ 1.26 GB ] Любовь Которой Мы Живем / The Love We Live [2020 All Sex Couples WEB-DL] bashai5 Скачать
2 | 0
Классика зарубежного кино [ 8.63 GB ] Живём один раз / You Only Live Once [1937 нуар BDRip 1080p by msltel] MVO DVO msltel Скачать
1 | 0
Классика зарубежного кино [ 3.35 GB ] Живём один раз / You Only Live Once [1937 нуар BDRip 720p by msltel] MVO DVO msltel Скачать
1 | 0
Классика зарубежного кино [ 1.75 GB ] Живём один раз / You Only Live Once [1937 нуар BDRip by msltel] MVO DVO msltel Скачать
1 | 0
Фильмы [HD 720p, 1080p] (Хороший звук DUB, MVO) [ 14.37 GB ] Пожизненно! / Life [1999 BDRip 1080p] [MVO] + [DVO] + [AVO] killermax2013 Скачать
1 | 0
Фильмы (Blu-ray, BD-Remux, HDDVD) [ 20.95 GB ] Житие Брайана по Монти Пайтону / Жизнь Брайана по Монти Пайтон / Monty Python's Life of Brian [1979 BDRemux 1080p] 4x [AVO] + [VO] killermax2013 Скачать
1 | 0
Мультфильмы / Cartoons [ 806 MB ] Мы живем / The Lie We Live [2017 Gonzo Adult Animation Cumshot WEB-DL 720p Оригинальный] DJASFUL Скачать
2 | 0

28-11-2019 20:33  

Отключить всю рекламу на сайте

12-06-2017 09:05 Живое Скачать торрент  

Прикольное опиание pb.wtf



12-06-2017 22:28 Живое Скачать торрент  

самый предсказуемый фильм который я видел, а может это римэйк чего то старого весь фильм было чувство что я его смотрел, что вот щас они его загонят и его опять кто то отпустит и как всегда угадывалось ктоpb.wtf



08-07-2017 15:52 Живое Скачать торрент  

"Задорнов был прав......... " - это лучшее описание к этому фильмуpb.wtf



    Дорогой пользователь! Огромная просьба, поблагодарите релизера, оцените раздачу и оставьте свои комментарий, если Вы скачали Живое через торрент бесплатно! Внесите свою лепту в развитие PiratBit!
    Комментировать посты могут только пользователи прошедшие не сложную регистрацию
    Показать сообщения:    

    Живое через торрент
    Скачать бесплатно Живое
    Живое скачать торрент
    Живое смотреть онлайн
    Cкачать фильм Живое бесплатно
    Живое скачать торрент в хорошем качестве
    Живое смотреть онлайн бесплатно в хорошем качестве


    Вы не можете начинать темы
    Вы не можете отвечать на сообщения
    Вы не можете редактировать свои сообщения
    Вы не можете удалять свои сообщения
    Вы не можете голосовать в опросах
    Вы не можете прикреплять файлы к сообщениям
    Вы можете скачивать файлы