Ссылка на приватное зеркало нашего сайта всего за 1$. Внимание количество ограничено!!!

2 сезон

iTunes

1 сезон

1

iTunes

iTunes

iTunes

1 сезон

RePack

30

ИГРА 18+

pack

ВАЖНО

!!Акция!!

Alien_RageХит недели

RePack

MK11
pack

Забери бонус

RePack

jed

!!Акция!!

Alien_Rage

RePack

fifa19

RePack

Assassins Creed: Odyssey

RePack

NEED FOR SPEED™ PAYBACK

4 сезон

9 сезон

Бесстыжие 9 сезон

Все сериалы

все сериалы на PB.wtf

RePack

FAR CRY 5
  

Красавица и чудовище / Beauty and the Beast (Билл Кондон) [2017, мюзикл, фэнтези, мелодрама, BDRip 720p] Дубляж - [Лицензия / iTunes] pb.wtf

Красавица и чудовище через торрент pb.wtf

Размер: 4.54 GB | Добавлен: 3 года 4 мес. назад | Торрент скачан:609 раз
Скачать  

12-06-2017 00:32 Красавица и чудовище Скачать торрент  

Красавица и чудовище / Beauty and the Beast

Год выпуска: 2017
Страна: США
Жанр: мюзикл, фэнтези, мелодрама, семейный

Продолжительность: 02:09:16
Перевод: Дубляж - [Лицензия / iTunes]
Субтитры: Русские, английские
Режиссер: Билл Кондон
В ролях: Эмма Уотсон (Belle), Дэн Стивенс (Beast), Люк Эванс (Gaston), Джош Гад (LeFou), Кевин Клайн (Maurice), Хэтти Морахэн (Agathe / Enchantress), Хейдн Гвин (Clothilde), Джерард Хоран (Jean the Potter), Рэй Фиарон (Père Robert), Юэн МакГрегор (Lumière), Иэн МакКеллен (Cogsworth), Эмма Томпсон (Mrs. Potts)
Описание:
Обозлённая Волшебница превратила принца Адама в отвратительное чудовище за то, что тот был злым, самовлюблённым и грубым. Чтобы снять чары с себя и слуг своего замка, ему необходимо научиться быть добрым, любить и быть любимым. Произойти это должно до того, как с розы, подаренной Волшебницей, упадёт последний лепесток.
Рейтинг:

MPAA: PG - Рекомендуется присутствие родителей
Качество: BDRip 720p
Формат: MKV
Видео: MPEG-4 AVC, 1280x536, 4000 Kbit/s, 23.976 fps
Аудио #1: русский / AC3 / 5.1 / 48 kHz / 384 kbps /
Аудио #2: английский / AC3 / 5.1 / 48 kHz / 640 kbps /
Навигация по главам: есть

General
Unique ID : 244040820009444515168535911474935869776 (0xB7988D62EFBB7CB2A1744106C01BB150)
Complete name : C:UsersbattiDesktopBeauty.and.the.Beast.2017.BDRip.720.ExKinoRay.mkv
Format : Matroska
Format version : Version 4 / Version 2
File size : 4.54 GiB
Duration : 2 h 9 min
Overall bit rate : 5 026 kb/s
Encoded date : UTC 2017-06-11 18:57:33
Writing application : mkvmerge v12.0.0 ('Trust / Lust') 64bit
Writing library : libebml v1.3.4 + libmatroska v1.4.5

Video
ID : 1
Format : AVC
Format/Info : Advanced Video Codec
Format profile : High@L4.1
Format settings, CABAC : Yes
Format settings, ReFrames : 12 frames
Codec ID : V_MPEG4/ISO/AVC
Duration : 2 h 9 min
Bit rate : 4 000 kb/s
Width : 1 280 pixels
Height : 536 pixels
Display aspect ratio : 2.40:1
Frame rate mode : Constant
Frame rate : 23.976 FPS
Color space : YUV
Chroma subsampling : 4:2:0
Bit depth : 8 bits
Scan type : Progressive
Bits/(Pixel*Frame) : 0.243
Stream size : 3.61 GiB (80%)
Writing library : x264 core 146 r2538 121396c
Encoding settings : cabac=1 / ref=12 / deblock=1:-3:-3 / analyse=0x3:0x133 / me=umh / subme=11 / psy=1 / psy_rd=1.05:0.05 / mixed_ref=1 / me_range=64 / chroma_me=1 / trellis=2 / 8x8dct=1 / cqm=0 / deadzone=21,11 / fast_pskip=0 / chroma_qp_offset=-3 / threads=6 / lookahead_threads=1 / sliced_threads=0 / nr=0 / decimate=0 / interlaced=0 / bluray_compat=0 / constrained_intra=0 / bframes=8 / b_pyramid=2 / b_adapt=2 / b_bias=0 / direct=3 / weightb=1 / open_gop=0 / weightp=2 / keyint=240 / keyint_min=23 / scenecut=40 / intra_refresh=0 / rc_lookahead=50 / rc=2pass / mbtree=0 / bitrate=4000 / ratetol=1.0 / qcomp=0.60 / qpmin=0 / qpmax=69 / qpstep=4 / cplxblur=20.0 / qblur=0.5 / vbv_maxrate=50000 / vbv_bufsize=62500 / nal_hrd=none / filler=0 / ip_ratio=1.40 / pb_ratio=1.30 / aq=1:0.80
Language : English
Default : Yes
Forced : No

Audio #1
ID : 2
Format : AC-3
Format/Info : Audio Coding 3
Format settings, Endianness : Big
Codec ID : A_AC3
Duration : 2 h 9 min
Bit rate mode : Constant
Bit rate : 384 kb/s
Channel(s) : 6 channels
Channel positions : Front: L C R, Side: L R, LFE
Sampling rate : 48.0 kHz
Frame rate : 31.250 FPS (1536 spf)
Bit depth : 16 bits
Compression mode : Lossy
Stream size : 354 MiB (8%)
Title : iTunes
Language : Russian
Service kind : Complete Main
Default : Yes
Forced : No

Audio #2
ID : 3
Format : AC-3
Format/Info : Audio Coding 3
Format settings, Endianness : Big
Codec ID : A_AC3
Duration : 2 h 9 min
Bit rate mode : Constant
Bit rate : 640 kb/s
Channel(s) : 6 channels
Channel positions : Front: L C R, Side: L R, LFE
Sampling rate : 48.0 kHz
Frame rate : 31.250 FPS (1536 spf)
Bit depth : 16 bits
Compression mode : Lossy
Stream size : 592 MiB (13%)
Title : Original
Language : English
Service kind : Complete Main
Default : No
Forced : No

Text #1
ID : 4
Format : UTF-8
Codec ID : S_TEXT/UTF8
Codec ID/Info : UTF-8 Plain Text
Duration : 2 h 1 min
Bit rate : 77 b/s
Count of elements : 1596
Stream size : 69.4 KiB (0%)
Title : Full (iTunes)
Language : Russian
Default : No
Forced : No

Text #2
ID : 5
Format : UTF-8
Codec ID : S_TEXT/UTF8
Codec ID/Info : UTF-8 Plain Text
Duration : 2 h 8 min
Bit rate : 51 b/s
Count of elements : 1791
Stream size : 48.7 KiB (0%)
Title : Full
Language : English
Default : No
Forced : No

Text #3
ID : 6
Format : UTF-8
Codec ID : S_TEXT/UTF8
Codec ID/Info : UTF-8 Plain Text
Duration : 2 h 8 min
Bit rate : 53 b/s
Count of elements : 2010
Stream size : 50.4 KiB (0%)
Title : SDH
Language : English
Default : No
Forced : No

Text #4
ID : 7
Format : UTF-8
Codec ID : S_TEXT/UTF8
Codec ID/Info : UTF-8 Plain Text
Duration : 2 h 8 min
Bit rate : 71 b/s
Count of elements : 2018
Stream size : 67.4 KiB (0%)
Title : SDH (Colored)
Language : English
Default : No
Forced : No

Menu
00:00:00.000 : en:Once Upon A Time
00:04:36.276 : en:"Belle"
00:08:06.528 : en:Monsiour Gaston
00:11:18.261 : en:"How Does A Moment Last Forever" (Music Box)
00:15:21.546 : en:"Belle" (Reprise)
00:18:57.386 : en:Our Unwitting Host
00:25:05.921 : en:"Forever Can Spare A Minute"
00:31:41.566 : en:The East Wing
00:36:08.708 : en:"Gaston"
00:42:32.258 : en:Lonely
00:47:01.318 : en:"Be Our Guest"
00:54:44.990 : en:Saved By The Beast
01:00:43.557 : en:"Days In The Sun"
01:07:40.932 : en:"Something There"
01:14:38.224 : en:"How Does A Moment Last Forever" (Montmartre)
01:19:43.696 : en:Your Troubled Mind
01:22:02.751 : en:"Beauty And The Beast"
01:28:53.370 : en:"Evermore"
01:34:01.302 : en:"The Mob Song"
01:38:10.176 : en:"Attack!"
01:45:23.692 : en:"I Am Not A Beast"
01:49:13.964 : en:The Final Petal
01:55:54.197 : en:"Beauty And The Beast" (Finale)
01:58:49.497 : en:End Credits
pb.wtf



Скачать Красавица и чудовище через торрент http://i95.fastpic.ru/big/2017/0612/23/0fcca878713336cee3e4ac60752deb23.jpg Скачать фильм Красавица и чудовище через торрент бесплантно в хорошем качестве Описание: Обозлённая Волшебница превратила принца Адама в отвратительное чудовище за то, что тот был злым, самовлюблённым и грубым. Чтобы ... 9.8 10 12
Info! Золотая раздача, скачанное не засчитывается.
Торрент: Зарегистрирован [2017-06-12 00:32] · скачан: 609 раз
Статус: √ проверено
Размер: 4.54 GB
Как cкачать? Как скачать Красавица и чудовище через торрент | qTorrent

% Раздел Тема Автор DL S | L
Ultra HD (UHD: 2K, 4K, 8K) [ 51.78 GB ] Красавица и чудовище / Beauty and the Beast [1991 Мультфильм мюзикл UHD BDRemux 2160p] DUB [] bober100 Скачать
1 | 0
Ultra HD (UHD: 2K, 4K, 8K) — видео сверхвысокой чёткости [ 49.85 GB ] Красавица и чудовище / Beauty and the Beast [2017 Мюзикл UHD BDRemux 2160p] DUB [] bober100 Скачать
2 | 0
Зарубежные Мультфильмы (BDRip 1080p, 720p, Blu-ray, BD-Remux) [ 26.2 GB ] Красавица и чудовище / Beauty and the Beast [1991 мультфильм мюзикл BDRemux 1080p] [Diamond Edition] DUB + MVO + DVO + 3xAVO - KORSAR kisa1980 Скачать
3 | 0
Иностранные мультфильмы [ 1.45 GB ] Красавица и чудовище: Чудесное Рождество / Beauty and the Beast: The Enchanted Christmas [1997 мультфильм BDRip-AVC] DUB MVO koenig Скачать
1 | 0
T Релизы по Парсеру [Игры, Сериалы и Фильмы и другое...] [ 44.35 GB ] Красавица и чудовище 3D / Beauty and the Beast 3D [2017 мюзикл Blu-ray 1080p] [EUR DUB BD3D] [] bober100 Скачать
1 | 0
Фильмы [HD 720p, 1080p] (Хороший звук DUB, MVO) [ 6.37 GB ] Красавица и чудовище / Beauty and the Beast [2017 мюзикл BDRip 720p] DUB + AVO potroks Скачать
1 | 0
Фильмы без перевода [ 26.4 GB ] Красавица и чудовище / Beauty and the Beast [2017 мюзикл BD Remux] [Оригинал-ENG] smaster Скачать
1 | 0

28-11-2019 20:33  

Отключить всю рекламу на сайте

12-06-2017 09:20 Красавица и чудовище Скачать торрент  

пенсяки повырезать-и будет замечательная сказка.мюзиклы это не наше. pb.wtf



17-06-2017 04:33 Красавица и чудовище Скачать торрент  

Отличная киноадаптация мультфильма 1991 годаpb.wtf



    Дорогой пользователь! Огромная просьба, поблагодарите релизера, оцените раздачу и оставьте свои комментарий, если Вы скачали Красавица и чудовище через торрент бесплатно! Внесите свою лепту в развитие PiratBit!
    Комментировать посты могут только пользователи прошедшие не сложную регистрацию
    Показать сообщения:    

    Красавица и чудовище через торрент
    Скачать бесплатно Красавица и чудовище
    Красавица и чудовище скачать торрент
    Красавица и чудовище смотреть онлайн
    Cкачать фильм Красавица и чудовище бесплатно
    Красавица и чудовище скачать торрент в хорошем качестве
    Красавица и чудовище смотреть онлайн бесплатно в хорошем качестве


    Вы не можете начинать темы
    Вы не можете отвечать на сообщения
    Вы не можете редактировать свои сообщения
    Вы не можете удалять свои сообщения
    Вы не можете голосовать в опросах
    Вы не можете прикреплять файлы к сообщениям
    Вы можете скачивать файлы