Лицензия

MVO

1

1 сезон

Лицензия

Лицензия

13

MVO

1 сезон

Deluxe Edition

pack

Рекомендуем

30

Repack

ВАЖНО

ВАЖНО

Ghostwire

RePack

jed

RePack

fifa19

RePack

RDR2

RePack

NEED FOR SPEED™ PAYBACK

RePack

Кинопоиск HD

 Острые козырьки 6 сезон

6 сезон

FAR CRY 6

RePack

Лицензия

MVO

1

1 сезон

1 сезон

Лицензия

  

Евротур / Eurotrip (Джефф Шеффер, Алек Берг, Дэвид Мэндел) [2004, комедия, приключения, BD Remux 1080p] DUB

Евротур через торрент pb.wtf

Размер: 14.38 GB | Добавлен: 5 лет 3 мес. назад | Торрент скачан:97 раз
Смотреть онлайн Евротур | Скачать   

12-06-2017 13:14 Евротур Скачать торрент  

Евротур / EurotripГод выпуска: 2004
Страна: США, Чехия
Жанр: комедия, приключения
Продолжительность: 01:30:05
Перевод: Дубляж
Субтитры: английские

Режиссер: Джефф Шеффер, Алек Берг, Дэвид Мэндел

rating

В ролях:

Скотт Мехловиц, Джекоб Питтс, Мишель Трахтенберг, Трэвис Уэстер, Джессика Бёрс, Кристин Кройк, Кэти Мейлс, Ниел Исхаков, Мэтт Дэймон, Винни Джонс

Описание:

Скотт Томас завел себе друга по переписке из Германии из самых практичных соображений. Он хотел получить отличную оценку по немецкому, а некто с именем Мик согласился перевести его домашние работы. Но вскоре выяснилось, что Мик — обворожительная блондинка, которая не прочь увидеть своего американского друга вживую.
После выпускных экзаменов Скотт прихватывает нескольких близких друзей и летит в Европу. Впереди его ждет увлекательное, хоть и беспокойное путешествие из Лондона в Берлин через Париж и Амстердам…

Качество: BD Remux 1080p
Формат: MKV
Видео кодек: H.264
Аудио кодек: AC3/DTS-HD MA

Видео: 1920x1080p (16:9), 23.976 fps, AVC MPEG-4 (x264), High Profile 4.0, ~ 19.621 Mbit/s, 0.395 bit/pixel
Аудио#1: Русский: 48 kHz/24 bits, AC3, 6 ch, ~448 kbps avg [Профессиональный (полное дублирование)]
Аудио#2: Английский: 48 kHz/24 bits, DTS-HD MA, 6 ch, ~ 2758 kbps avg. (DTS Core: 48 kHz, 5.1 ch, ~1 509 kbps avg.) [Оригинал]
скриншот   скриншот   скриншот   скриншот   скриншот  

Общее
Уникальный идентификатор : 247791749634554105276677659360936776193 (0xBA6AF47EC4A8EFB186CCB33A30CAD201)
Полное имя : D:\EuroTrip (2004) BD-Remux.mkv
Формат : Matroska
Версия формата : Version 4 / Version 2
Размер файла : 14,4 Гбайт
Продолжительность : 1 ч. 30 м.
Режим общего битрейта : Переменный
Общий поток : 22,8 Мбит/сек
Дата кодирования : UTC 2017-06-11 19:02:15
Программа кодирования : mkvmerge v7.0.0 ('Where We Going') 64bit built on Jun 9 2014 15:16:27
Библиотека кодирования : libebml v1.3.0 + libmatroska v1.4.1

Видео
Идентификатор : 1
Формат : AVC
Формат/Информация : Advanced Video Codec
Профиль формата : [email protected]
Параметр CABAC формата : Да
Параметр ReFrames формата : 2 кадра
Идентификатор кодека : V_MPEG4/ISO/AVC
Продолжительность : 1 ч. 30 м.
Вид битрейта : Переменный
Битрейт : 19,6 Мбит/сек
Ширина : 1920 пикселей
Высота : 1080 пикселей
Соотношение сторон : 16:9
Режим частоты кадров : Постоянный
Частота кадров : 23,976 (24000/1001) кадра/сек
Цветовое пространство : YUV
Субдискретизация насыщенности : 4:2:0
Битовая глубина : 8 бит
Тип развёртки : Прогрессивная
Бит/(Пиксели*Кадры) : 0.395
Размер потока : 12,3 Гбайт (86%)
Default : Да
Forced : Нет

Аудио #1
Идентификатор : 2
Формат : AC-3
Формат/Информация : Audio Coding 3
Расширение режима : CM (complete main)
Параметр Endianness формата : Big
Идентификатор кодека : A_AC3
Продолжительность : 1 ч. 30 м.
Вид битрейта : Постоянный
Битрейт : 448 Кбит/сек
Каналы : 6 каналов
Расположение каналов : Front: L C R, Side: L R, LFE
Частота : 48,0 КГц
Частота кадров : 31,250 кадров/сек (1536 spf)
Метод сжатия : С потерями
Размер потока : 289 Мбайт (2%)
Язык : Russian
Default : Нет
Forced : Нет

Аудио #2
Идентификатор : 3
Формат : DTS
Формат/Информация : Digital Theater Systems
Профиль формата : MA / Core
Режим : 16
Параметр Endianness формата : Big
Идентификатор кодека : A_DTS
Продолжительность : 1 ч. 30 м.
Вид битрейта : Переменный / Постоянный
Битрейт : 2758 Кбит/сек / 1509 Кбит/сек
Каналы : 6 каналов
Расположение каналов : Front: L C R, Side: L R, LFE
Частота : 48,0 КГц
Частота кадров : 93,750 кадра/сек (512 spf)
Битовая глубина : 24 бит
Метод сжатия : Без потерь / Lossy
Размер потока : 1,74 Гбайт (12%)
Язык : English
Default : Да
Forced : Нет

Текст
Идентификатор : 4
Формат : PGS
Режим смешивания : zlib
Идентификатор кодека : S_HDMV/PGS
Идентификатор кодека/Информация : Picture based subtitle format used on BDs/HD-DVDs
Продолжительность : 1 ч. 27 м.
Битрейт : 16,7 Кбит/сек
Count of elements : 2648
Размер потока : 10,5 Мбайт (0%)
Язык : English
Default : Да
Forced : Нет




Скачать Евротур через торрент http://i95.fastpic.ru/big/2017/0612/f1/67b241d8a3f59c41f10b8352b2beb1f1.jpg Скачать, смотреть онлайн Евротур бесплантно в хорошем качестве Описание: Скотт Томас завел себе друга по переписке из Германии из самых практичных соображений. Он хотел получить отличную оценку по ... 10 10 5
Торрент: Зарегистрирован [2017-06-12 13:14] · скачан: 97 раз
Статус: √ проверено
Размер: 14.38 GB
Как cкачать? Как скачать Евротур через торрент | UTorrent

% Раздел Тема Автор DL S | L
Фильмы [HD 720p, 1080p] (Хороший звук DUB, MVO) [ 6.37 GB ] Евротур / EuroTrip | DUB | 720p от potroks potroks Скачать
1 | 0

28-11-2019 20:33  

Отключить вcю реклaмy на сайте

    Дорогой пользователь! Огромная просьба, поблагодарите релизера, оцените раздачу и оставьте свои комментарий, если Вы скачали Евротур через торрент бесплатно!!
    Комментировать посты могут только пользователи прошедшие не сложную регистрацию
    Показать сообщения:    


    Евротур через торрент
    Скачать бесплатно Евротур
    Евротур скачать торрент
    Евротур смотреть онлайн
    Cкачать фильм Евротур бесплатно
    Евротур скачать торрент в хорошем качестве
    Евротур смотреть онлайн бесплатно в хорошем качестве
    Вы не можете начинать темы
    Вы не можете отвечать на сообщения
    Вы не можете редактировать свои сообщения
    Вы не можете удалять свои сообщения
    Вы не можете голосовать в опросах
    Вы не можете прикреплять файлы к сообщениям
    Вы можете скачивать файлы