Ссылка на приватное зеркало всего за 1$. Внимание количество ограничено!!!

OK

1+1

iTunes

мы

OK

1

WEB-DLRip

Джокер

Пифагор

Ведьмак / The Witcher сериал

iTunes

ПШазам

ОК

Оно 2

iTunes

30
pack

Вам бонус

ВАЖНО

!!Акция!!

Alien_RageХит недели

RePack

Resident Evil 21

ИГРА 18+

pack

RePack

jed

RePack

fifa19

RePack

Assassins Creed: Odyssey

RePack

NEED FOR SPEED™ PAYBACK

4 сезон

9 сезон

Бесстыжие 9 сезон

Все сериалы

все сериалы на PB.wtf

RePack

FAR CRY 5
  

Клетка / Cage (Уоррен Дадли) [2016, Триллер, WEBRip 1080p] VO [Xixidok] pb.wtf

Клетка через торрент pb.wtf

Размер: 3.68 GB | Добавлен: 2 года 7 мес. назад | Торрент скачан:51 раз
Скачать  

12-06-2017 15:07 Клетка Скачать торрент  

Клетка / Cage
Год выпуска: 2016
Страна: Великобритания
Жанр: Триллер
Продолжительность: 01:24:04
Перевод: Любительский одноголосый - [Xixidok]
Субтитры: английские

Режиссер: Уоррен Дадли

rating

В ролях:

Патрик Бергин, Люси-Джейн Куинлэн, Кэйтлин Торберн, Джейк Ансуорт, Пол Дюбуа, Скотт Хейни, Кристиан Найт, Джад Роджерс, Шерон Драйн

Описание:

Приключения телефонной проститутки в деревянной клетке.

Качество: WEBRip 1080p
Формат: MKV
Видео кодек: H.264
Аудио кодек: MP3/AC3

Видео: AVC/H.264, 1908х802, ~5559 Kbps, 23.810 fps
Аудио#1: Русский (MP3, 2 ch, 192 Кбит/с)
Аудио#2: Английский (AC3, 6 ch, 384 Кбит/с)

скриншот   скриншот   скриншот   скриншот   скриншот  

Общее
Уникальный идентификатор : 235227255097577847595731829477290298794 (0xB0F71F16390DBEE2952AC4D167D84DAA)
Полное имя : E:MMMMCage.2016.1080p.WEBRip.x264.mkv
Формат : Matroska
Версия формата : Version 4 / Version 2
Размер файла : 3,68 Гбайт
Продолжительность : 1 ч. 24 м.
Общий поток : 6260 Кбит/сек
Название фильма : Cage.2016
Дата кодирования : UTC 2017-06-11 10:26:10
Программа кодирования : mkvmerge v6.9.1 ('Blue Panther') 64bit built on Apr 18 2014 18:23:38
Библиотека кодирования : libebml v1.3.0 + libmatroska v1.4.1
Обложка : Yes
Attachments : small_cover.jpg / small_cover_land.jpg / cover.jpg / cover_land.jpg

Видео
Идентификатор : 1
Формат : AVC
Формат/Информация : Advanced Video Codec
Профиль формата : High@L4.1
Параметр CABAC формата : Да
Параметр ReFrames формата : 4 кадра
Идентификатор кодека : V_MPEG4/ISO/AVC
Продолжительность : 1 ч. 24 м.
Битрейт : 5559 Кбит/сек
Номинальный битрейт : 6000 Кбит/сек
Ширина : 1920 пикселей
Высота : 802 пикселя
Соотношение сторон : 2,40:1
Режим частоты кадров : Постоянный
Частота кадров : 23,810 кадра/сек
Цветовое пространство : YUV
Субдискретизация насыщенности : 4:2:0
Битовая глубина : 8 бит
Тип развёртки : Прогрессивная
Бит/(Пиксели*Кадры) : 0.152
Размер потока : 3,26 Гбайт (89%)
Заголовок : Cage.2016
Библиотека кодирования : x264 core 142 r2389 956c8d8
Настройки программы : cabac=1 / ref=3 / deblock=1:0:0 / analyse=0x3:0x113 / me=hex / subme=7 / psy=1 / psy_rd=1.00:0.00 / mixed_ref=1 / me_range=16 / chroma_me=1 / trellis=1 / 8x8dct=1 / cqm=0 / deadzone=21,11 / fast_pskip=1 / chroma_qp_offset=-2 / threads=6 / lookahead_threads=1 / sliced_threads=0 / nr=0 / decimate=1 / interlaced=0 / bluray_compat=0 / constrained_intra=0 / bframes=3 / b_pyramid=2 / b_adapt=1 / b_bias=0 / direct=1 / weightb=1 / open_gop=0 / weightp=2 / keyint=240 / keyint_min=24 / scenecut=40 / intra_refresh=0 / rc_lookahead=40 / rc=abr / mbtree=1 / bitrate=6000 / ratetol=1.0 / qcomp=0.60 / qpmin=0 / qpmax=69 / qpstep=4 / vbv_maxrate=62500 / vbv_bufsize=78125 / nal_hrd=none / filler=0 / ip_ratio=1.40 / aq=1:1.00
Default : Да
Forced : Нет
Цветовой диапазон : Limited
Основные цвета : BT.709
Характеристики трансфера : BT.709
Коэффициенты матрицы : BT.709

Аудио #1
Идентификатор : 2
Формат : MPEG Audio
Версия формата : Version 1
Профиль формата : Layer 3
Идентификатор кодека : A_MPEG/L3
Идентификатор кодека/Подсказка : MP3
Продолжительность : 1 ч. 24 м.
Вид битрейта : Постоянный
Битрейт : 192 Кбит/сек
Каналы : 2 канала
Частота : 44,1 КГц
Метод сжатия : С потерями
Размер потока : 115 Мбайт (3%)
Заголовок : Xixidoktor
Язык : Russian
Default : Да
Forced : Нет

Аудио #2
Идентификатор : 3
Формат : AC-3
Формат/Информация : Audio Coding 3
Расширение режима : CM (complete main)
Параметр Endianness формата : Big
Идентификатор кодека : A_AC3
Продолжительность : 1 ч. 24 м.
Вид битрейта : Постоянный
Битрейт : 384 Кбит/сек
Каналы : 6 каналов
Расположение каналов : Front: L C R, Side: L R, LFE
Частота : 44,1 КГц
Частота кадров : 28,711 кадров/сек (1536 spf)
Метод сжатия : С потерями
Размер потока : 231 Мбайт (6%)
Заголовок : original
Язык : English
Default : Нет
Forced : Нет

Текст
Идентификатор : 4
Формат : UTF-8
Идентификатор кодека : S_TEXT/UTF8
Идентификатор кодека/Информация : UTF-8 Plain Text
Язык : English
Default : Нет
Forced : Нет

pb.wtf



Скачать Клетка через торрент http://s41.radikal.ru/i091/1706/6c/0e383ff83379.jpg Скачать фильм Клетка через торрент бесплантно в хорошем качестве Описание: Приключения телефонной проститутки в деревянной ... 10 10 3
Торрент: Зарегистрирован [2017-06-12 15:07] · скачан: 51 раз
Статус: T временная
Размер: 3.68 GB
Как cкачать? Как скачать Клетка через торрент | qTorrent

% Раздел Тема Автор DL S | L
T Фильмы (мультфильмы) cо спонсором показа (Новинки AVI/MKV) [ 1.41 GB ] Пустая чёрная клетка / Black Hollow Cage [2017 WEB-DLRip] MVO [КОЛОБОК] bober100 Скачать
1 | 0
T Фильмы (мультфильмы) cо спонсором показа (Новинки AVI/MKV) [ 3.46 GB ] Пустая чёрная клетка / Black Hollow Cage [2017 WEB-DL 720p] MVO [КОЛОБОК] bober100 Скачать
1 | 0
Фильмы 2013 [DVDrip, WEB-DLRip, HDrip] [ 1.46 GB ] Клетка славы / Клетка славы Чавеса / Chavez Cage of Glory [2013 WEB-DLRip] MVO [МАТЧ!] bober100 Скачать
1 | 0
T Фильмы 2016 [DVDrip, WEB-DLRip, HDrip] (DUB, MVO) [ 1.25 GB ] Клетка / Cage [2016 WEB-DLRip] MVO ["Синема УС"] bober100 Скачать
1 | 0
T Фильмы 2016 [DVDrip, WEB-DLRip, HDrip] (DUB, MVO) [ 1.37 GB ] Клетка / Caged No More [2016 DVDRip] sanekbest1 Скачать
1 | 0
Фильмы (Blu-ray, BD-Remux, HDDVD) [ 34.06 GB ] Клетка для пташек / The Birdcage [1996 BD-Remux DUB DVO AVO Original SUB] кэп Скачать
1 | 0
Фильмы до 2000 г. [ 1.05 GB ] Клетка для пташек / The Birdcage [1996 BDRip-AVC] + [DVO] killermax2013 Скачать
1 | 0

28-11-2019 20:33  

Отключить всю рекламу на сайте

12-06-2017 15:40 Клетка Скачать торрент  


Описание:

Приключения телефонной проститутки в деревянной клетке.pb.wtf



12-06-2017 17:20 Клетка Скачать торрент  

pb.wtf



13-06-2017 17:50 Клетка Скачать торрент  

Может, деревянной проститутки в телефонной клетке? pb.wtf



11-07-2018 05:50 Клетка Скачать торрент  

дырка в клеткеpb.wtf



    Дорогой пользователь! Огромная просьба, поблагодарите релизера, оцените раздачу и оставьте свои комментарий, если Вы скачали Клетка через торрент бесплатно! Внесите свою лепту в развитие PiratBit!
    Комментировать посты могут только пользователи прошедшие не сложную регистрацию
    Показать сообщения:    

    Клетка через торрент
    Скачать бесплатно Клетка
    Клетка скачать торрент
    Клетка смотреть онлайн
    Cкачать фильм Клетка бесплатно
    Клетка скачать торрент в хорошем качестве
    Клетка смотреть онлайн бесплатно в хорошем качестве


    Вы не можете начинать темы
    Вы не можете отвечать на сообщения
    Вы не можете редактировать свои сообщения
    Вы не можете удалять свои сообщения
    Вы не можете голосовать в опросах
    Вы не можете прикреплять файлы к сообщениям
    Вы можете скачивать файлы