1 сезон

3 сезон

iTunes

1

Line

MVO

iTunes

13

1 сезон

RePack

30

Deluxe

pack

Лицензия

ВАЖНО

ИГРА 18+

pack

RePack

MK11

RePack

jed

RePack

fifa19

RePack

RDR2

RePack

NEED FOR SPEED™ PAYBACK

4 сезон

9 сезон

Бесстыжие 9 сезон

Все сериалы

все сериалы на PB.wtf

RePack

FAR CRY 5

Anonymous, доброй ночи, мы катастрофически не успеваем собрать деньги на оплату серверов, помогите нам пожалуйста 5,10,15р., для нас важна любая помощь . В качестве благодарности мы отключим Вам всю рекламу на сайте (укажите свой ник в строку Ваше имя)!

×
  
Magnet ссылка

Красавица и чудовище / Beauty and the Beast (Билл Кондон) [2017, мюзикл, фэнтези, мелодрама, BDRip от R.G. Resident] Дубляж - [Лицензия / iTunes] pb.wtf

Красавица и чудовище через торрент pb.wtf

Размер: 1.45 GB | Добавлен: 4 года 1 мес. назад | Торрент скачан:1039 раз
Скачать  

12-06-2017 17:06 Красавица и чудовище Скачать торрент  

Красавица и чудовище / Beauty and the Beast
««Вы наш гость»»

Год выпуска: 2017
Страна: США
Жанр: мюзикл, фэнтези, мелодрама, семейный

Продолжительность: 02:09:16
Перевод: Дубляж - [Лицензия / iTunes]
Субтитры Русские, внешние (Full)
Режиссер: Билл Кондон
В ролях:

Эмма Уотсон (Belle), Дэн Стивенс (Beast), Люк Эванс (Gaston), Джош Гад (LeFou), Кевин Клайн (Maurice), Хэтти Морахэн (Agathe / Enchantress), Хейдн Гвин (Clothilde), Джерард Хоран (Jean the Potter), Рэй Фиарон (Père Robert), Юэн МакГрегор (Lumière), Иэн МакКеллен (Cogsworth), Эмма Томпсон (Mrs. Potts)
Описание:
Обозлённая Волшебница превратила принца Адама в отвратительное чудовище за то, что тот был злым, самовлюблённым и грубым. Чтобы снять чары с себя и слуг своего замка, ему необходимо научиться быть добрым, любить и быть любимым. Произойти это должно до того, как с розы, подаренной Волшебницей, упадёт последний лепесток.
Рейтинг:

MPAA: PG - Рекомендуется присутствие родителей
Качество: BDRip
Формат: AVI
Видео: XviD, 720x304 (2.35:1), 1400 kbps, 23,976 fps, 0,267 bpp
Аудио: AC3 / 2.0 / 48 kHz / 192 kbps /

General
Complete name : E:\Beauty.and.the.Beast.2017.BDRip.R.G.Resident\Beauty.and.the.Beast.2017.BDRip.R.G.Resident.avi
Format : AVI
Format/Info : Audio Video Interleave
File size : 1.45 GiB
Duration : 2 h 9 min
Overall bit rate : 1 602 kb/s
Movie name : Beauty.and.the.Beast.2017.BDRip.R.G.Resident
Director : Bill Condon
Genre : Musical
Writing application : VirtualDubModRus 1.5.10.2 (build 2542/release)
Original source form/Name : Movie
Comment : -Lexx- R.G. Resident

Video
ID : 0
Format : MPEG-4 Visual
Format profile : Advanced Simple@L5
Format settings, BVOP : 2
Format settings, QPel : No
Format settings, GMC : No warppoints
Format settings, Matrix : Custom
Codec ID : XVID
Codec ID/Hint : XviD
Duration : 2 h 9 min
Bit rate : 1 401 kb/s
Width : 720 pixels
Height : 304 pixels
Display aspect ratio : 2.35:1
Frame rate : 23.976 (24000/1001) FPS
Color space : YUV
Chroma subsampling : 4:2:0
Bit depth : 8 bits
Scan type : Progressive
Compression mode : Lossy
Bits/(Pixel*Frame) : 0.267
Stream size : 1.27 GiB (87%)
Writing library : XviD 73

Audio
ID : 1
Format : AC-3
Format/Info : Audio Coding 3
Mode extension : CM (complete main)
Format settings, Endianness : Big
Codec ID : 2000
Duration : 2 h 9 min
Bit rate mode : Constant
Bit rate : 192 kb/s
Channel(s) : 2 channels
Channel positions : Front: L R
Sampling rate : 48.0 kHz
Frame rate : 31.250 FPS (1536 spf)
Compression mode : Lossy
Stream size : 177 MiB (12%)
Alignment : Split accross interleaves
Interleave, duration : 42 ms (1.00 video frame)
Interleave, preload duration : 500 ms
pb.wtf



Скачать Красавица и чудовище через торрент http://i77.fastpic.ru/big/2016/0417/a7/808a646271c761f7c7d87df3d366b3a7.png Скачать фильм Красавица и чудовище через торрент бесплантно в хорошем качестве Описание: Обозлённая Волшебница превратила принца Адама в отвратительное чудовище за то, что тот был злым, самовлюблённым и грубым. Чтобы ... 9.9 10 23
Info! Золотая раздача, скачанное не засчитывается.
Торрент: Зарегистрирован [2017-06-12 17:06] · скачан: 1 039 раз
Статус: √ проверено
Размер: 1.45 GB
Как cкачать? Как скачать Красавица и чудовище через торрент | UTorrent

% Раздел Тема Автор DL S | L
Ultra HD (UHD: 2K, 4K, 8K) [ 51.78 GB ] Красавица и чудовище / Beauty and the Beast [1991 Мультфильм мюзикл UHD BDRemux 2160p] DUB [] bober100 Скачать
1 | 0
Ultra HD (UHD: 2K, 4K, 8K) — видео сверхвысокой чёткости [ 49.85 GB ] Красавица и чудовище / Beauty and the Beast [2017 Мюзикл UHD BDRemux 2160p] DUB [] bober100 Скачать
1 | 0
Зарубежные Мультфильмы (BDRip 1080p, 720p, Blu-ray, BD-Remux) [ 26.2 GB ] Красавица и чудовище / Beauty and the Beast [1991 мультфильм мюзикл BDRemux 1080p] [Diamond Edition] DUB + MVO + DVO + 3xAVO - KORSAR kisa1980 Скачать
1 | 0
Иностранные мультфильмы [ 1.45 GB ] Красавица и чудовище: Чудесное Рождество / Beauty and the Beast: The Enchanted Christmas [1997 мультфильм BDRip-AVC] DUB MVO koenig Скачать
1 | 0
T Релизы по Парсеру [Игры, Сериалы и Фильмы и другое...] [ 44.35 GB ] Красавица и чудовище 3D / Beauty and the Beast 3D [2017 мюзикл Blu-ray 1080p] [EUR DUB BD3D] [] bober100 Скачать
1 | 0
Фильмы [HD 720p, 1080p] (Хороший звук DUB, MVO) [ 6.37 GB ] Красавица и чудовище / Beauty and the Beast [2017 мюзикл BDRip 720p] DUB + AVO potroks Скачать
1 | 0
Фильмы без перевода [ 26.4 GB ] Красавица и чудовище / Beauty and the Beast [2017 мюзикл BD Remux] [Оригинал-ENG] smaster Скачать
1 | 0

28-11-2019 20:33  

Отключить всю рекламу на сайте

    Дорогой пользователь! Огромная просьба, поблагодарите релизера, оцените раздачу и оставьте свои комментарий, если Вы скачали Красавица и чудовище через торрент бесплатно! Внесите свою лепту в развитие PiratBit!
    Комментировать посты могут только пользователи прошедшие не сложную регистрацию
    Показать сообщения:    

    Красавица и чудовище через торрент
    Скачать бесплатно Красавица и чудовище
    Красавица и чудовище скачать торрент
    Красавица и чудовище смотреть онлайн
    Cкачать фильм Красавица и чудовище бесплатно
    Красавица и чудовище скачать торрент в хорошем качестве
    Красавица и чудовище смотреть онлайн бесплатно в хорошем качестве


    Вы не можете начинать темы
    Вы не можете отвечать на сообщения
    Вы не можете редактировать свои сообщения
    Вы не можете удалять свои сообщения
    Вы не можете голосовать в опросах
    Вы не можете прикреплять файлы к сообщениям
    Вы можете скачивать файлы