2 сезон

iTunes

MVO

1

2 сезон

iTunes

iTunes

1 сезон

RePack

30

Ultimate

ВАЖНО

ИГРА 18+

pack

RePack

MK11
pack

Легкие деньги

RePack

jed

RePack

fifa19

RePack

RDR2

RePack

NEED FOR SPEED™ PAYBACK

4 сезон

9 сезон

Бесстыжие 9 сезон

Все сериалы

все сериалы на PB.wtf

RePack

FAR CRY 5

Anonymous, добрый вечер, мы не успеваем собрать деньги на оплату серверов за декабрь и январь, помогите нам пожалуйста в это трудное время. В качестве благодарности мы отключим Вам всю рекламу на сайте (укажите свой ник в строку Ваше имя)!

×
  
Magnet ссылка

Искусство любви. История Михалины Вислоцкой / Sztuka kochania. Historia Michaliny Wislockiej [2017 г., драма,биография, HDRip, Любительский (многоголосый)| Синема УС] pb.wtf

Искусство любви. История Михалины Вислоцкой через торрент pb.wtf

Размер: 1.37 GB | Добавлен: 3 года 7 мес. назад | Торрент скачан:196 раз
Скачать  

13-06-2017 03:20 Искусство любви. История Михалины Вислоцкой Скачать торрент  

Искусство любви. История Михалины Вислоцкой / Sztuka kochania. Historia Michaliny Wislockiej
Год выпуска: 2017
Страна: Польша
Жанр: драма, биография
Продолжительность: 02:01:39
Перевод: Любительский (многоголосый)| Синема УС
Субтитры: нет

rating

В ролях: Магдалена Бочарска, Каролина Грушка, Жасмина Полак, Петр Адамчик, Артур Барчиш, Борис Шиц, Аркадиуш Якубик, Томаш Кот

Описание: История о знаменитом польском гинекологе и сексологе — Михалине Вислоцкой. Умение выслушать пациенток дало возможность Вислоцкой узнать самые сокровенные тайны польских женщин. Этот кредит доверия она вернула сполна, совершив революцию в сексуальной жизни целого поколения…

Доп. информация: Есть реклама.

Качество: HDRip
Формат: AVI
Видео кодек: XviD
Аудио кодек: AC3
Видео: 720x304 (2.35:1), 24.000 fps, XviD ~1 406 kbps avg
Аудио#1: 48 kHz, AC3 Dolby Digital, 2/0 (L,R) ch, ~192 kbps



General
Complete name : H:\релизы.торрентфайл\The.Art.of.Loving.Story.of.Michalina.Wislocka.2017.P.HDRip.14OOMB_KOSHARA.avi
Format : AVI
Format/Info : Audio Video Interleave
File size : 1.37 GiB
Duration : 2h 1mn
Overall bit rate : 1 608 Kbps
Writing application : VirtualDubMod 1.5.10.2 (build 2540/release)
Writing library : VirtualDubMod build 2540/release

Video
ID : 0
Format : MPEG-4 Visual
Format profile : Advanced Simple@L5
Format settings, BVOP : 2
Format settings, QPel : No
Format settings, GMC : No warppoints
Format settings, Matrix : Default (MPEG)
Codec ID : XVID
Codec ID/Hint : XviD
Duration : 2h 1mn
Bit rate : 1 407 Kbps
Width : 720 pixels
Height : 304 pixels
Display aspect ratio : 2.35:1
Frame rate : 24.000 fps
Color space : YUV
Chroma subsampling : 4:2:0
Bit depth : 8 bits
Scan type : Progressive
Compression mode : Lossy
Bits/(Pixel*Frame) : 0.268
Stream size : 1.20 GiB (87%)
Writing library : XviD 1.2.1 (UTC 2008-12-04)

Audio
ID : 1
Format : AC-3
Format/Info : Audio Coding 3
Mode extension : CM (complete main)
Format settings, Endianness : Big
Codec ID : 2000
Duration : 2h 1mn
Bit rate mode : Constant
Bit rate : 192 Kbps
Channel(s) : 2 channels
Channel positions : Front: L R
Sampling rate : 48.0 KHz
Bit depth : 16 bits
Compression mode : Lossy
Stream size : 167 MiB (12%)
Alignment : Split accross interleaves
Interleave, duration : 42 ms (1.00 video frame)
Interleave, preload duration : 500 ms

pb.wtf



Скачать Искусство любви. История Михалины Вислоцкой через торрент http://img11.lostpic.net/2017/06/13/d737a8041b9671ce9bafe7a1938f7df8.png Скачать фильм Искусство любви. История Михалины Вислоцкой через торрент бесплантно в хорошем качестве Описание: История о знаменитом польском гинекологе и сексологе — Михалине Вислоцкой. Умение выслушать пациенток дало возможность Вислоцкой ... 6.7 10 6
Info! Золотая раздача, скачанное не засчитывается.
Торрент: Зарегистрирован [2017-06-13 03:20] · скачан: 196 раз
Статус: T временная
Размер: 1.37 GB
Как cкачать? Как скачать Искусство любви. История Михалины Вислоцкой через торрент | UTorrent

28-11-2019 20:33  

Отключить всю рекламу на сайте

    Дорогой пользователь! Огромная просьба, поблагодарите релизера, оцените раздачу и оставьте свои комментарий, если Вы скачали Искусство любви. История Михалины Вислоцкой через торрент бесплатно! Внесите свою лепту в развитие PiratBit!
    Комментировать посты могут только пользователи прошедшие не сложную регистрацию
    Показать сообщения:    

    Искусство любви. История Михалины Вислоцкой через торрент
    Скачать бесплатно Искусство любви. История Михалины Вислоцкой
    Искусство любви. История Михалины Вислоцкой скачать торрент
    Искусство любви. История Михалины Вислоцкой смотреть онлайн
    Cкачать фильм Искусство любви. История Михалины Вислоцкой бесплатно
    Искусство любви. История Михалины Вислоцкой скачать торрент в хорошем качестве
    Искусство любви. История Михалины Вислоцкой смотреть онлайн бесплатно в хорошем качестве


    Вы не можете начинать темы
    Вы не можете отвечать на сообщения
    Вы не можете редактировать свои сообщения
    Вы не можете удалять свои сообщения
    Вы не можете голосовать в опросах
    Вы не можете прикреплять файлы к сообщениям
    Вы можете скачивать файлы