2 сезон

iTunes

1 сезон

1

iTunes

iTunes

iTunes

1 сезон

RePack

30

ИГРА 18+

pack

ВАЖНО

!!Акция!!

Alien_RageХит недели

RePack

MK11
pack

Забери бонус

RePack

jed

!!Акция!!

Alien_Rage

RePack

fifa19

RePack

Assassins Creed: Odyssey

RePack

NEED FOR SPEED™ PAYBACK

4 сезон

9 сезон

Бесстыжие 9 сезон

Все сериалы

все сериалы на PB.wtf

RePack

FAR CRY 5
  

Джанго / Django (Серджио Корбуччи) [1996, боевик, вестерн, спагетти-вестерн, BDRip 720p от еnvy / NNNB] MVO, DVO, AVO, VO pb.wtf

Джанго через торрент pb.wtf

Раздают: 6 [ 0 KB/s ]
Размер: 7.95 GB | Добавлен: 3 года 4 мес. назад | Торрент скачан:56 раз
Скачать  

13-06-2017 07:13 Джанго Скачать торрент  

Информация о фильме

Русское название: Джанго
Оригинальное название: Django
Год выхода: 1966
Жанр: боевик, вестерн, спагетти-вестерн
Режиссер: Серджио Корбуччи
Выпущено: США
Продолжительность: 02:27:09
Перевод: Профессиональный (многоголосый, закадровый), Профессиональный (двухголосый, закадровый), Авторский (одноголосый, закадровый), Одноголосый (закадровый)
В ролях: Франко Неро, Хосе Бодало, Анхель Альварес, Лорендана Нашяк, Джино Перниц и др.
Описание:

Как всегда, Дикий Запад наполнен бандитами и головорезами. Терроризм процветает на территории небольшого городка, пока в нем не появляется защитник слабых и угнетенных Джанго. Он появляется ниоткуда, притащив за собой на веревке гроб с «секретом». Трудна миссия по защите угнетенных, но, как всегда, выполнима, тем более, если за дело берется Джанго.


Файл

Качество: BDRip 1080p (исходник Blu-Ray Disc Remux 1080p Blue Underground)
Формат: MKV
Видео: 1194x720, 10889 Кбит/сек, 23,976 кадр/сек, AVC, x264, High@L4.1, 5:3, 0.528 Бит/[Пиксели*Кадры]
Аудио 1: AC-3, 192 Кбит/сек, 1 канала(ов), 48,0 КГц - Многоголосый закадровый, Cinema Prestige / Русский
Аудио 2: AC-3, 192 Кбит/сек, 1 канала(ов), 48,0 КГц - Двухголосый закадровый, DVD-Магия / Русский
Аудио 3: AC-3, 192 Кбит/сек, 1 канала(ов), 48,0 КГц - Многоголосый закадровый, Корпорация "Видеофильм" / Русский
Аудио 4: AC-3, 192 Кбит/сек, 1 канала(ов), 48,0 КГц - Одноголосый закадровый, С.Кузнецов / Русский
Аудио 5: AC-3, 192 Кбит/сек, 1 канала(ов), 48,0 КГц - Одноголосый закадровый, Л.Володарский / Русский
Аудио 6: AC-3, 192 Кбит/сек, 1 канала(ов), 48,0 КГц - Одноголосый закадровый, Неизвестный / Русский
Аудио 7: AC-3, 192 Кбит/сек, 1 канала(ов), 48,0 КГц - Оригинал / Итальянский
Аудио 8: AC-3, 192 Кбит/сек, 1 канала(ов), 48,0 КГц - Дубляж / Английский
Субтитры: Русские | Полные, Английские | Полные
Форсированные субтитры: Нет
Чаптеры (Главы): Есть (Подписаны)
Доп. информация:
- Ремукс собран на основе издания "Blue Underground" (спасибо artcinema / BitHQ).
- Перевод "Cinema Prestige" выполнен с итальянского, переводы "DVD-Магия", "Видеофильм", Сергея Кузнецова и Леонида Володарского - с английского, неизвестный - с немецкого.
- В переводе Леонида Володарского отсутствовал фрагмент (тайминги: 01:22:55 - 01:23:42) - вставлен перевод Сергея Кузнецова.
- За исходные оцифровки дорожек с VHS большое спасибо Nekontroliruemij_devil и dffdfdfd.
- Работа со звуком - xfiles






Автор Рипа: Группа:


Format : Matroska
Format version : Version 2
File size : 7.95 GiB
Duration : 1 h 31 min
Overall bit rate : 12.4 Mb/s
Movie name : Django.(1966).BDRip.720p.[envy]
Encoded date : UTC 2017-06-13 05:09:07
Writing application : mkvmerge v5.8.0 ('No Sleep / Pillow') built on Sep 2 2012 15:37:04
Writing library : libebml v1.2.3 + libmatroska v1.3.0

Video
ID : 1
Format : AVC
Format/Info : Advanced Video Codec
Format profile : High@L4.1
Format settings, CABAC : Yes
Format settings, ReFrames : 9 frames
Codec ID : V_MPEG4/ISO/AVC
Duration : 1 h 31 min
Bit rate : 10.9 Mb/s
Width : 1 194 pixels
Height : 720 pixels
Display aspect ratio : 5:3
Frame rate mode : Constant
Frame rate : 23.976 (24000/1001) FPS
Color space : YUV
Chroma subsampling : 4:2:0
Bit depth : 8 bits
Scan type : Progressive
Bits/(Pixel*Frame) : 0.528
Stream size : 6.81 GiB (86%)
Title : Django.(1966).BDRip.720p.[envy]
Writing library : x264 core 150 r2833 df79067
Encoding settings : cabac=1 / ref=9 / deblock=1:-3:-3 / analyse=0x3:0x133 / me=umh / subme=11 / psy=1 / psy_rd=1.00:0.09 / mixed_ref=1 / me_range=32 / chroma_me=1 / trellis=2 / 8x8dct=1 / cqm=0 / deadzone=21,11 / fast_pskip=0 / chroma_qp_offset=-3 / threads=12 / lookahead_threads=1 / sliced_threads=0 / nr=0 / decimate=1 / interlaced=0 / bluray_compat=0 / constrained_intra=0 / bframes=5 / b_pyramid=2 / b_adapt=2 / b_bias=0 / direct=3 / weightb=1 / open_gop=0 / weightp=2 / keyint=240 / keyint_min=23 / scenecut=40 / intra_refresh=0 / rc=2pass / mbtree=0 / bitrate=10889 / ratetol=2.0 / qcomp=0.60 / qpmin=0 / qpmax=69 / qpstep=4 / cplxblur=20.0 / qblur=0.5 / ip_ratio=1.40 / pb_ratio=1.30 / aq=1:0.70
Language : Italian
Default : Yes
Forced : No

Audio #1
ID : 2
Format : AC-3
Format/Info : Audio Coding 3
Format settings, Endianness : Big
Codec ID : A_AC3
Duration : 1 h 31 min
Bit rate mode : Constant
Bit rate : 192 kb/s
Channel(s) : 1 channel
Channel positions : Front: C
Sampling rate : 48.0 kHz
Frame rate : 31.250 FPS (1536 spf)
Bit depth : 16 bits
Compression mode : Lossy
Stream size : 126 MiB (2%)
Title : MVO Cinema Prestige
Language : Russian
Service kind : Complete Main
Default : Yes
Forced : No

Audio #2
ID : 3
Format : AC-3
Format/Info : Audio Coding 3
Format settings, Endianness : Big
Codec ID : A_AC3
Duration : 1 h 31 min
Bit rate mode : Constant
Bit rate : 192 kb/s
Channel(s) : 1 channel
Channel positions : Front: C
Sampling rate : 48.0 kHz
Frame rate : 31.250 FPS (1536 spf)
Bit depth : 16 bits
Compression mode : Lossy
Stream size : 126 MiB (2%)
Title : DVO DVD-Магия
Language : Russian
Service kind : Complete Main
Default : No
Forced : No

Audio #3
ID : 4
Format : AC-3
Format/Info : Audio Coding 3
Format settings, Endianness : Big
Codec ID : A_AC3
Duration : 1 h 31 min
Bit rate mode : Constant
Bit rate : 192 kb/s
Channel(s) : 1 channel
Channel positions : Front: C
Sampling rate : 48.0 kHz
Frame rate : 31.250 FPS (1536 spf)
Bit depth : 16 bits
Compression mode : Lossy
Stream size : 126 MiB (2%)
Title : MVO Видеофильм
Language : Russian
Service kind : Complete Main
Default : No
Forced : No

Audio #4
ID : 5
Format : AC-3
Format/Info : Audio Coding 3
Format settings, Endianness : Big
Codec ID : A_AC3
Duration : 1 h 31 min
Bit rate mode : Constant
Bit rate : 192 kb/s
Channel(s) : 1 channel
Channel positions : Front: C
Sampling rate : 48.0 kHz
Frame rate : 31.250 FPS (1536 spf)
Bit depth : 16 bits
Compression mode : Lossy
Stream size : 126 MiB (2%)
Title : AVO Кузнецов
Language : Russian
Service kind : Complete Main
Default : No
Forced : No

Audio #5
ID : 6
Format : AC-3
Format/Info : Audio Coding 3
Format settings, Endianness : Big
Codec ID : A_AC3
Duration : 1 h 31 min
Bit rate mode : Constant
Bit rate : 192 kb/s
Channel(s) : 1 channel
Channel positions : Front: C
Sampling rate : 48.0 kHz
Frame rate : 31.250 FPS (1536 spf)
Bit depth : 16 bits
Compression mode : Lossy
Stream size : 126 MiB (2%)
Title : AVO Володарский
Language : Russian
Service kind : Complete Main
Default : No
Forced : No

Audio #6
ID : 7
Format : AC-3
Format/Info : Audio Coding 3
Format settings, Endianness : Big
Codec ID : A_AC3
Duration : 1 h 31 min
Bit rate mode : Constant
Bit rate : 192 kb/s
Channel(s) : 1 channel
Channel positions : Front: C
Sampling rate : 48.0 kHz
Frame rate : 31.250 FPS (1536 spf)
Bit depth : 16 bits
Compression mode : Lossy
Stream size : 126 MiB (2%)
Title : VO
Language : Russian
Service kind : Complete Main
Default : No
Forced : No

Audio #7
ID : 8
Format : AC-3
Format/Info : Audio Coding 3
Format settings, Endianness : Big
Codec ID : A_AC3
Duration : 1 h 31 min
Bit rate mode : Constant
Bit rate : 192 kb/s
Channel(s) : 1 channel
Channel positions : Front: C
Sampling rate : 48.0 kHz
Frame rate : 31.250 FPS (1536 spf)
Bit depth : 16 bits
Compression mode : Lossy
Stream size : 126 MiB (2%)
Title : Ita
Language : Italian
Service kind : Complete Main
Default : No
Forced : No

Audio #8
ID : 9
Format : AC-3
Format/Info : Audio Coding 3
Format settings, Endianness : Big
Codec ID : A_AC3
Duration : 1 h 31 min
Bit rate mode : Constant
Bit rate : 192 kb/s
Channel(s) : 1 channel
Channel positions : Front: C
Sampling rate : 48.0 kHz
Frame rate : 31.250 FPS (1536 spf)
Bit depth : 16 bits
Compression mode : Lossy
Stream size : 126 MiB (2%)
Title : Eng
Language : English
Service kind : Complete Main
Default : No
Forced : No

Text #1
ID : 10
Format : UTF-8
Codec ID : S_TEXT/UTF8
Codec ID/Info : UTF-8 Plain Text
Title : Rus full
Language : Russian
Default : No
Forced : No

Text #2
ID : 11
Format : UTF-8
Codec ID : S_TEXT/UTF8
Codec ID/Info : UTF-8 Plain Text
Title : Eng full
Language : English
Default : No
Forced : No

Menu
00:00:00.000 : :Program Start/Main Titles
00:03:00.513 : :Teaching a Lesson
00:08:25.671 : :Stranger in Town
00:13:05.743 : :Django's Coffin
00:17:54.948 : :Mexican Target Practice
00:22:34.728 : :Major Jackson and the Red Scarves
00:27:49.292 : :Heart of Gold
00:33:23.876 : :A Coffinful of Death
00:38:13.165 : :Mud-Wrestling Whores
00:41:37.119 : :Hear No Evil, Taste No Evil
00:44:02.640 : :Old Friends
00:49:54.408 : :Bloody Ambush
00:52:56.298 : :Race Through the Hills
00:55:06.594 : :"I Want the Gold!"
00:58:48.858 : :Bar Fight
01:02:36.794 : :Beautiful Decoy
01:06:33.280 : :Django Takes the Gold
01:12:19.877 : :General Hugo's Revenge
01:17:52.459 : :Battle Along the Border
01:20:31.493 : :"Jackson's Got to Die!"
01:23:43.143 : :Cold-Blooded Murder
01:26:01.364 : :Gunfight at the Cemetary
01:30:16.577 : :Django's Theme

pb.wtf



Скачать Джанго через торрент http://img11.lostpic.net/2017/06/13/c9f379b27277ce6dfff31f78e32ba173.png Скачать фильм Джанго через торрент бесплантно в хорошем качестве Описание:Как всегда, Дикий Запад наполнен бандитами и головорезами. Терроризм процветает на территории небольшого городка, пока в нем не ... 10 10 3
Info! Золотая раздача, скачанное не засчитывается.
Торрент: Зарегистрирован [2017-06-13 07:13] · скачан: 56 раз
Статус: √ проверено
Размер: 7.95 GB
Как cкачать? Как скачать Джанго через торрент | qTorrent

28-11-2019 20:33  

Отключить всю рекламу на сайте

    Дорогой пользователь! Огромная просьба, поблагодарите релизера, оцените раздачу и оставьте свои комментарий, если Вы скачали Джанго через торрент бесплатно! Внесите свою лепту в развитие PiratBit!
    Комментировать посты могут только пользователи прошедшие не сложную регистрацию
    Показать сообщения:    

    Джанго через торрент
    Скачать бесплатно Джанго
    Джанго скачать торрент
    Джанго смотреть онлайн
    Cкачать фильм Джанго бесплатно
    Джанго скачать торрент в хорошем качестве
    Джанго смотреть онлайн бесплатно в хорошем качестве


    Вы не можете начинать темы
    Вы не можете отвечать на сообщения
    Вы не можете редактировать свои сообщения
    Вы не можете удалять свои сообщения
    Вы не можете голосовать в опросах
    Вы не можете прикреплять файлы к сообщениям
    Вы можете скачивать файлы