2 сезон

iTunes

MVO

1

2 сезон

iTunes

iTunes

1 сезон

RePack

30

Новинка

ВАЖНО

ИГРА 18+

pack

RePack

MK11
pack

Легкие деньги

RePack

jed

RePack

fifa19

RePack

RDR2

RePack

NEED FOR SPEED™ PAYBACK

4 сезон

9 сезон

Бесстыжие 9 сезон

Все сериалы

все сериалы на PB.wtf

RePack

FAR CRY 5

Anonymous, доброе утро, мы не успеваем собрать деньги на оплату серверов за декабрь и январь, помогите нам пожалуйста в это трудное время. В качестве благодарности мы отключим Вам всю рекламу на сайте (укажите свой ник в строку Ваше имя)!

×
  
Magnet ссылка

Чудовище / L'animal (Клод Зиди) [1977 г., мелодрама, комедия, WEB-DLRip 720p / 60 FPS , Дубляж] от R.G. HD-Films pb.wtf

Чудовище через торрент pb.wtf

Размер: 3.97 GB | Добавлен: 3 года 7 мес. назад | Торрент скачан:61 раз
Скачать  

13-06-2017 16:33 Чудовище Скачать торрент  

Чудовище / L'animal
Год выпуска: 1977
Страна: Франция
Жанр: мелодрама, комедия
Продолжительность: 01:35:24
Перевод: Дубляж

Режиссер: Клод Зиди

В ролях: Жан-Поль Бельмондо, Рэкел Уэлч, Дани Саваль, Раймон Жером, Джейн Биркин, Джонни Халлидей, Ив Муруси, Шарль Жерар, Клод Шаброль, Марио Давид

Описание: У каскадера Мишеля Гоше чудовищный характер. Поэтому ни одна киностудия не хочет иметь с ним дела, а невеста готова бежать из-под венца. Но вот, в Париж на съемки приезжает известный актер Бруно Феррари. В его новом фильме — сплошные трюки, один сложнее другого. И совершенно ясно, что с ними не справиться никому, кроме Мишеля. Стоит ли говорить о том, что актер и каскадер похожи друг на друга, как близнецы-братья?

Доп. информация: ( Есть вставки закадрового перевода )

Качество: WEB-DLRip 720p / 60 FPS
Формат: MKV
Видео кодек: H.264
Аудио кодек: AC3
Видео: x264, 1280 x 536 ( 2,40:1 ), 5502 kbps, 60,000 fps, ( 0.134 bpp)
Аудио#1: Русский, AC-3, 48.0 KHz, 2 ch, 384 Kbps (Дублированный, НТВ)

скриншот   скриншот   скриншот   скриншот   скриншот  
Автор рипа: slaventi-69
Общее
Уникальный идентификатор : 208991464384722335241839151817277629190 (0x9D3A4ABC72ACE369BAF9DC06B7F8E306)
Полное имя : E:\L'Animal.(1977).BDRip.720p.(60 Fps).mkv
Формат : Matroska
Версия формата : Version 4 / Version 2
Размер файла : 3,97 Гбайт
Продолжительность : 1 ч. 36 м.
Общий поток : 5887 Кбит/сек
Название фильма : Чудовище / L'Animal (1977) BDRip 720p (60 Fps)
Дата кодирования : UTC 2017-06-05 10:16:08
Программа кодирования : mkvmerge v9.1.0 ('Little Earthquakes') 64bit
Библиотека кодирования : libebml v1.3.3 + libmatroska v1.4.4

Видео
Идентификатор : 1
Формат : AVC
Формат/Информация : Advanced Video Codec
Профиль формата : High@L4.1
Параметр CABAC формата : Да
Параметр ReFrames формата : 4 кадра
Идентификатор кодека : V_MPEG4/ISO/AVC
Продолжительность : 1 ч. 36 м.
Битрейт : 5502 Кбит/сек
Ширина : 1280 пикселей
Высота : 536 пикселей
Соотношение сторон : 2,40:1
Режим частоты кадров : Постоянный
Частота кадров : 60,000 кадров/сек
Цветовое пространство : YUV
Субдискретизация насыщенности : 4:2:0
Битовая глубина : 8 бит
Тип развёртки : Прогрессивная
Бит/(Пиксели*Кадры) : 0.134
Размер потока : 3,71 Гбайт (93%)
Заголовок : slaventi-69 ( R.G. HD-Films | 60 fps )
Библиотека кодирования : x264 core 146 r2538 121396c
Настройки программы : cabac=1 / ref=4 / deblock=1:0:0 / analyse=0x3:0x113 / me=umh / subme=9 / psy=1 / psy_rd=1.00:0.00 / mixed_ref=1 / me_range=24 / chroma_me=1 / trellis=2 / 8x8dct=1 / cqm=0 / deadzone=21,11 / fast_pskip=1 / chroma_qp_offset=-2 / threads=8 / lookahead_threads=1 / sliced_threads=0 / nr=0 / decimate=1 / interlaced=0 / bluray_compat=0 / constrained_intra=0 / bframes=4 / b_pyramid=2 / b_adapt=2 / b_bias=0 / direct=3 / weightb=1 / open_gop=0 / weightp=2 / keyint=250 / keyint_min=25 / scenecut=40 / intra_refresh=0 / rc_lookahead=50 / rc=crf / mbtree=1 / crf=17.5 / qcomp=0.60 / qpmin=0 / qpmax=69 / qpstep=4 / vbv_maxrate=14000 / vbv_bufsize=14000 / crf_max=0.0 / nal_hrd=none / filler=0 / ip_ratio=1.40 / aq=1:1.00
Язык : French
Default : Да
Forced : Нет

Аудио
Идентификатор : 2
Формат : AC-3
Формат/Информация : Audio Coding 3
Расширение режима : CM (complete main)
Параметр Endianness формата : Big
Идентификатор кодека : A_AC3
Продолжительность : 1 ч. 36 м.
Вид битрейта : Постоянный
Битрейт : 384 Кбит/сек
Каналы : 2 канала
Расположение каналов : Front: L R
Частота : 48,0 КГц
Частота кадров : 31,250 кадров/сек (1536 spf)
Метод сжатия : С потерями
Задержка видео : 2 с. 500 мс.
Размер потока : 265 Мбайт (7%)
Заголовок : НТВ
Язык : Russian
Default : Да
Forced : Нет

pb.wtf



Скачать Чудовище через торрент http://i67.fastpic.ru/big/2014/1203/7c/e313e07f875c95004b89db62f00d007c.jpg Скачать фильм Чудовище через торрент бесплантно в хорошем качестве Описание: У каскадера Мишеля Гоше чудовищный характер. Поэтому ни одна кино не хочет иметь с ним дела, а невеста готова бежать из-под ... 10 10 8
Info! Золотая раздача, скачанное не засчитывается.
Торрент: Зарегистрирован [2017-06-13 16:33] · скачан: 61 раз
Статус: √ проверено
Размер: 3.97 GB
Как cкачать? Как скачать Чудовище через торрент | UTorrent

28-11-2019 20:33  

Отключить всю рекламу на сайте

    Дорогой пользователь! Огромная просьба, поблагодарите релизера, оцените раздачу и оставьте свои комментарий, если Вы скачали Чудовище через торрент бесплатно! Внесите свою лепту в развитие PiratBit!
    Комментировать посты могут только пользователи прошедшие не сложную регистрацию
    Показать сообщения:    

    Чудовище через торрент
    Скачать бесплатно Чудовище
    Чудовище скачать торрент
    Чудовище смотреть онлайн
    Cкачать фильм Чудовище бесплатно
    Чудовище скачать торрент в хорошем качестве
    Чудовище смотреть онлайн бесплатно в хорошем качестве


    Вы не можете начинать темы
    Вы не можете отвечать на сообщения
    Вы не можете редактировать свои сообщения
    Вы не можете удалять свои сообщения
    Вы не можете голосовать в опросах
    Вы не можете прикреплять файлы к сообщениям
    Вы можете скачивать файлы