1 сезон

3 сезон

iTunes

1

Line

MVO

iTunes

13

1 сезон

RePack

30

Deluxe

pack

Лицензия

ВАЖНО

ИГРА 18+

pack

RePack

MK11

RePack

jed

RePack

fifa19

RePack

RDR2

RePack

NEED FOR SPEED™ PAYBACK

4 сезон

9 сезон

Бесстыжие 9 сезон

Все сериалы

все сериалы на PB.wtf

RePack

FAR CRY 5

Anonymous, доброй ночи, мы катастрофически не успеваем собрать деньги на оплату серверов, помогите нам пожалуйста 5,10,15р., для нас важна любая помощь . В качестве благодарности мы отключим Вам всю рекламу на сайте (укажите свой ник в строку Ваше имя)!

×
  
Magnet ссылка

Озеро Шиммер / Shimmer Lake (Орен Узил) [2017, триллер, драма, криминал, детектив, WEB-DLRip] MVO [@MUZOBOZ@] pb.wtf

Озеро Шиммер через торрент pb.wtf

Размер: 1.37 GB | Добавлен: 4 года 1 мес. назад | Торрент скачан:353 раза
Скачать  

14-06-2017 06:46 Озеро Шиммер Скачать торрент  

Озеро Шиммер / Shimmer Lake
Год выпуска: 2017
Страна: США, Канада
Жанр: триллер, драма, криминал, детектив
Продолжительность: 01:27:22
Перевод: Любительский (многоголосый) - [@MUZOBOZ@]
Субтитры: отсутствуют

Режиссер: Орен Узил

rating

В ролях:

Бенджамин Уокер, Уайатт Расселл, Рэйн Уилсон, Рон Ливингстон, Адам Палли, Стефани Сигман, Джон Майкл Хиггинс, Роб,Кордри, Марк Рендалл, Джули Ханер

Описание:

Сюжет картины расскажет о шерифе небольшого городка, которому необходимо раскрыть убийство. Несмотря на типичный сюжет, события в фильме будут показаны в обратном порядке: они начнутся с третьего дня после убийства и будут возвращаться к дате совершения преступления

Качество: WEB-DLRip
Формат: AVI
Видео кодек: XviD
Аудио кодек: AC3

Видео: 1792 kb/s, 720x304, 23,976 fps
Аудио#1: AC3, 48,0 КГц, 448 kb/s (2 ch)

скриншот   скриншот   скриншот   скриншот   скриншот  

Общее
Полное имя : D:\Shimmer.lake.2017.P.WEB-DLRip.14OOMB_KOSHARA.avi
Формат : AVI
Формат/Информация : Audio Video Interleave
Размер файла : 1,37 Гбайт
Продолжительность : 1 ч. 27 м.
Общий поток : 2250 Кбит/сек
Программа кодирования : VirtualDubMod 1.5.10.2 (build 2540/release)
Библиотека кодирования : VirtualDubMod build 2540/release

Видео
Идентификатор : 0
Формат : MPEG-4 Visual
Профиль формата : Advanced Simple@L5
Параметр BVOP формата : 2
Параметр QPel формата : Нет
Параметр GMC формата : Без точки перехода
Параметр матрицы формата : Default (MPEG)
Идентификатор кодека : XVID
Идентификатор кодека/Подсказка : XviD
Продолжительность : 1 ч. 27 м.
Битрейт : 1792 Кбит/сек
Ширина : 720 пикселей
Высота : 304 пикселя
Соотношение сторон : 2,35:1
Частота кадров : 23,976 (24000/1001) кадра/сек
Цветовое пространство : YUV
Субдискретизация насыщенности : 4:2:0
Битовая глубина : 8 бит
Тип развёртки : Прогрессивная
Метод сжатия : С потерями
Бит/(Пиксели*Кадры) : 0.342
Размер потока : 1,09 Гбайт (80%)
Библиотека кодирования : XviD 1.2.1 (UTC 2008-12-04)

Аудио
Идентификатор : 1
Формат : AC-3
Формат/Информация : Audio Coding 3
Расширение режима : CM (complete main)
Параметр Endianness формата : Big
Идентификатор кодека : 2000
Продолжительность : 1 ч. 27 м.
Вид битрейта : Постоянный
Битрейт : 448 Кбит/сек
Каналы : 2 канала
Расположение каналов : Front: L R
Частота : 48,0 КГц
Частота кадров : 31,250 кадров/сек (1536 spf)
Метод сжатия : С потерями
Размер потока : 280 Мбайт (20%)
Выравнивание : Разделение по промежуткам
Продолжительность промежутка : 42 мс. (1,00 видеокадр)
Время предзагрузки промежутка : 500 мс.

pb.wtf



Скачать Озеро Шиммер через торрент http://s009.radikal.ru/i309/1706/29/ace52adbf51d.jpg Скачать фильм Озеро Шиммер через торрент бесплантно в хорошем качестве Описание: Сюжет картины расскажет о шерифе небольшого городка, которому необходимо раскрыть убийство. Несмотря на ичный сюжет, события в ... 7.7 10 7
Торрент: Зарегистрирован [2017-06-14 06:46] · скачан: 353 раз
Статус: T временная
Размер: 1.37 GB
Как cкачать? Как скачать Озеро Шиммер через торрент | UTorrent



Последний раз редактировалось: bober100 (2017-06-14 14:57), всего редактировалось 1 раз

28-11-2019 20:33  

Отключить всю рекламу на сайте

05-07-2017 16:08 Озеро Шиммер Скачать торрент  

в начале затянуто, это портит впечатление, единственный минус.
ближе к концовке фильм всё интересней и лучше, а финал (получается что это самое начало повествования) вообще стал неожиданностью, хороший фильм, на 7-8 баллов, если бы не скучноватость в самом начале.pb.wtf



04-05-2020 19:49 Озеро Шиммер Скачать торрент  

описание напомнило (отдаленно) старенький фильм "11:14"pb.wtf



06-05-2020 18:44 Озеро Шиммер Скачать торрент  

По мне, единственный минус пока то, что фильм не раздаётся, посмотреть не удаётся.pb.wtf



    Дорогой пользователь! Огромная просьба, поблагодарите релизера, оцените раздачу и оставьте свои комментарий, если Вы скачали Озеро Шиммер через торрент бесплатно! Внесите свою лепту в развитие PiratBit!
    Комментировать посты могут только пользователи прошедшие не сложную регистрацию
    Показать сообщения:    

    Озеро Шиммер через торрент
    Скачать бесплатно Озеро Шиммер
    Озеро Шиммер скачать торрент
    Озеро Шиммер смотреть онлайн
    Cкачать фильм Озеро Шиммер бесплатно
    Озеро Шиммер скачать торрент в хорошем качестве
    Озеро Шиммер смотреть онлайн бесплатно в хорошем качестве


    Вы не можете начинать темы
    Вы не можете отвечать на сообщения
    Вы не можете редактировать свои сообщения
    Вы не можете удалять свои сообщения
    Вы не можете голосовать в опросах
    Вы не можете прикреплять файлы к сообщениям
    Вы можете скачивать файлы