Ссылка на приватное зеркало нашего сайта всего за 1$. Внимание количество ограничено!!!

2 сезон

iTunes

1 сезон

1

2 сезон

2 сезон

iTunes

1 сезон

RePack

30

Новинка

ВАЖНО

ИГРА 18+

pack

RePack

MK11
pack

Забери бонус

RePack

jed

!!Акция!!

Alien_Rage

RePack

fifa19

RePack

Assassins Creed: Odyssey

RePack

NEED FOR SPEED™ PAYBACK

4 сезон

9 сезон

Бесстыжие 9 сезон

Все сериалы

все сериалы на PB.wtf

RePack

FAR CRY 5
  

Джеймстаун / Jamestown / Сезон: 1 / Серии: 1-8 из 8 (Сэмюэл Донован, Пол Вильшурст, Джон Александр) [2017, драма, история, HDTVRip 720p] [MVO] (Jaskier) pb.wtf

Джеймстаун через торрент pb.wtf

Раздают: 1 [ 0 KB/s ]
Размер: 7.81 GB | Добавлен: 3 года 4 мес. назад | Торрент скачан:116 раз
Скачать  

14-06-2017 21:42 Джеймстаун Скачать торрент  

Джеймстаун | Jamestown Год выпуска: 2017
Страна: Великобритания
Жанр: Драма, история
Продолжительность: ~ 00:59:00
Перевод: Профессиональный (многоголосый закадровый) | Jaskier

Режиссёр: Сэмюэл Донован, Пол Вильшурст, Джон Александр

В ролях: Гвилим Ли, Наоми Баттрик, Клер Кокс, Стюарт Мартин, Юджин «Храбрый камень», Люк Роскелл, Софи Рандл и др.

Описание: Действие исторической драмы происходит в начале XVII века. Первые английские колонисты высаживаются на Американский континент, чтобы создать здесь поселения. В 1607 году был основан Джеймстаун, положивший начало освоению Нового Света.



Качество: HDTVRip 720p
Формат: MKV
Видео: 1280x544 (2,35:1) | X264 | ~2200 kbps | 25 fps
Аудио 1: AC3, 48,0 КГц, 6 ch, 384 kbps - Rus
Аудио 2: AC3, 48,0 КГц, 6 ch, 384 kbps - Eng
Субтитры: нет
Переведено и озвучено: студией Jaskier
Общее
Уникальный идентификатор                 : 172372327890101743791387959694360804526 (0x81ADB3E9D4BDB26685A5EAAB86E77CAE)
Полное имя                               : D:\загрузки\Jamestown. Season 1 (HDTVRip l 720p l Jaskier)\Jamestown.s01e01.720p.HDTVRip.x264-JASKiER.mkv
Формат                                   : Matroska
Версия формата                           : Version 2
Размер файла                             : 1,41 Гбайт
Продолжительность                        : 1 ч. 5 м.
Общий поток                              : 3090 Кбит/сек
Дата кодирования                         : UTC 2017-06-14 14:11:25
Программа кодирования                    : mkvmerge v7.8.0 ('River Man') 32bit built on Apr  3 2015 12:11:22
Библиотека кодирования                   : libebml v1.3.1 + libmatroska v1.4.2

Видео
Идентификатор                            : 1
Формат                                   : AVC
Формат/Информация                        : Advanced Video Codec
Профиль формата                          : High@L4.1
Параметр CABAC формата                   : Да
Параметр ReFrames формата                : 5 кадров
Идентификатор кодека                     : V_MPEG4/ISO/AVC
Продолжительность                        : 1 ч. 5 м.
Битрейт                                  : 2261 Кбит/сек
Ширина                                   : 1280 пикселей
Высота                                   : 544 пикселя
Соотношение сторон                       : 2,35:1
Режим частоты кадров                     : Постоянный
Частота кадров                           : 25,000 кадров/сек
Цветовое пространство                    : YUV
Субдискретизация насыщенности            : 4:2:0
Битовая глубина                          : 8 бит
Тип развёртки                            : Прогрессивная
Бит/(Пиксели*Кадры)                      : 0.130
Размер потока                            : 1,03 Гбайт (73%)
Библиотека кодирования                   : x264 core 148 r2762 90a61ec
Настройки программы                      : cabac=1 / ref=5 / deblock=1:0:0 / analyse=0x3:0x113 / me=hex / subme=8 / psy=1 / psy_rd=1.00:0.00 / mixed_ref=1 / me_range=16 / chroma_me=1 / trellis=2 / 8x8dct=1 / cqm=0 / deadzone=21,11 / fast_pskip=1 / chroma_qp_offset=-2 / threads=12 / lookahead_threads=2 / sliced_threads=0 / nr=0 / decimate=1 / interlaced=0 / bluray_compat=0 / constrained_intra=0 / bframes=3 / b_pyramid=2 / b_adapt=1 / b_bias=0 / direct=3 / weightb=1 / open_gop=0 / weightp=2 / keyint=250 / keyint_min=25 / scenecut=40 / intra_refresh=0 / rc_lookahead=50 / rc=crf / mbtree=1 / crf=18.0 / qcomp=0.60 / qpmin=0 / qpmax=69 / qpstep=4 / ip_ratio=1.40 / aq=1:1.00
Язык                                     : English
Default                                  : Да
Forced                                   : Нет
Цветовой диапазон                        : Limited
Коэффициенты матрицы                     : BT.709

Аудио #1
Идентификатор                            : 2
Формат                                   : AC-3
Формат/Информация                        : Audio Coding 3
Параметр Endianness формата              : Big
Идентификатор кодека                     : A_AC3
Продолжительность                        : 1 ч. 5 м.
Вид битрейта                             : Постоянный
Битрейт                                  : 384 Кбит/сек
Каналы                                   : 6 каналов
Расположение каналов                     : Front: L C R, Side: L R, LFE
Частота                                  : 48,0 КГц
Частота кадров                           : 31,250 кадров/сек (1536 spf)
Битовая глубина                          : 16 бит
Метод сжатия                             : С потерями
Размер потока                            : 180 Мбайт (12%)
Заголовок                                : JASKiER
Язык                                     : Russian
ServiceKind/String                       : Complete Main
Default                                  : Да
Forced                                   : Нет

Аудио #2
Идентификатор                            : 3
Формат                                   : AC-3
Формат/Информация                        : Audio Coding 3
Параметр Endianness формата              : Big
Идентификатор кодека                     : A_AC3
Продолжительность                        : 1 ч. 5 м.
Вид битрейта                             : Постоянный
Битрейт                                  : 384 Кбит/сек
Каналы                                   : 6 каналов
Расположение каналов                     : Front: L C R, Side: L R, LFE
Частота                                  : 48,0 КГц
Частота кадров                           : 31,250 кадров/сек (1536 spf)
Битовая глубина                          : 16 бит
Метод сжатия                             : С потерями
Размер потока                            : 180 Мбайт (12%)
Язык                                     : English
ServiceKind/String                       : Complete Main
Default                                  : Нет
Forced                                   : Нет
Когда раздача ведётся путём добавления новых серий, при каждом добавлении создётся новый торрент. Чтобы начать докачку новой серии, пользователям необходимо сделать следующее:
(1) остановить скачивание,
(2) удалить старый торрент у себя из клиента (старые серии удалять не надо),
(3) скачать новый торрент и запустить его у себя в клиенте вместо старого, при этом указать клиенту путь в старую папку, куда и должно происходить скачивание новых серий.
Ваш клиент при этом должен произвести хеширование (проверку) старой папки (если не производит сам - помогите ему сделать это), и будет докачивать только те серии, которых у вас ещё нет. Старые серии при этом не удаляются, а продолжают раздаваться!
Eсли вы уже удалили старые серии, то предотвратить повторную закачку старых серий можно, отжав галочку в соответсвующих местах при запуске нового торрента. По возможности, желательно не удалять старые серии как можно дольше, чтобы релизёр не столько продолжал раздавать старые серии, а смог сконцентрироваться на новых.
pb.wtf



Скачать Джеймстаун через торрент http://i94.fastpic.ru/big/2017/0614/bc/8c4ab5b0767a31aed9855202975b9fbc.jpg Скачать фильм Джеймстаун через торрент бесплантно в хорошем качестве Описание: Действие исторической драмы происходит в начале XVII века. Первые английские колонисты высаживаются на Американский континент, ... 6.4 10 5
Торрент: Зарегистрирован [2017-06-29 13:45] · скачан: 116 раз
Статус: √ проверено
Размер: 7.81 GB
Как cкачать? Как скачать Джеймстаун через торрент | qTorrent

% Раздел Тема Автор DL S | L
Зарубежные сериалы [ 8.41 GB ] Джеймстаун / Jamestown / Сезон: 2 / Серии: 1-8 из 8 [2018 история HDTVRip 720p] [MVO] killermax2013 Скачать
1 | 0
Зарубежные сериалы [ 12.92 GB ] Джеймстаун / Jamestown / Сезон: 1 / Серии: 1-8 из 8 [2017 история BDRip 720p] [MVO] killermax2013 Скачать
1 | 0
Зарубежные сериалы [ 4.5 GB ] Джеймстаун / Jamestown / Сезон: 1 / Серии: 1-8 из 8 [2017 история HDTVRip] [MVO] killermax2013 Скачать
1 | 0


Последний раз редактировалось: killermax2013 (2017-06-29 13:45), всего редактировалось 1 раз

28-11-2019 20:33  

Отключить всю рекламу на сайте

21-06-2017 05:13 Джеймстаун Скачать торрент  

+7pb.wtf



    Дорогой пользователь! Огромная просьба, поблагодарите релизера, оцените раздачу и оставьте свои комментарий, если Вы скачали Джеймстаун через торрент бесплатно! Внесите свою лепту в развитие PiratBit!
    Комментировать посты могут только пользователи прошедшие не сложную регистрацию
    Показать сообщения:    

    Джеймстаун через торрент
    Скачать бесплатно Джеймстаун
    Джеймстаун скачать торрент
    Джеймстаун смотреть онлайн
    Cкачать фильм Джеймстаун бесплатно
    Джеймстаун скачать торрент в хорошем качестве
    Джеймстаун смотреть онлайн бесплатно в хорошем качестве


    Вы не можете начинать темы
    Вы не можете отвечать на сообщения
    Вы не можете редактировать свои сообщения
    Вы не можете удалять свои сообщения
    Вы не можете голосовать в опросах
    Вы не можете прикреплять файлы к сообщениям
    Вы можете скачивать файлы