2 сезон

iTunes

MVO

1

2 сезон

iTunes

iTunes

1 сезон

RePack

30

Новинка

ВАЖНО

ИГРА 18+

pack

RePack

MK11
pack

Легкие деньги

RePack

jed

RePack

fifa19

RePack

RDR2

RePack

NEED FOR SPEED™ PAYBACK

4 сезон

9 сезон

Бесстыжие 9 сезон

Все сериалы

все сериалы на PB.wtf

RePack

FAR CRY 5

Anonymous, доброй ночи, мы не успеваем собрать деньги на оплату серверов за декабрь и январь, помогите нам пожалуйста в это трудное время. В качестве благодарности мы отключим Вам всю рекламу на сайте (укажите свой ник в строку Ваше имя)!

×
  
Magnet ссылка

Случайный тропический рай / Random Tropical Paradise (Санджив Сирпал / Sanjeev Sirpal) [2017 г., комедия, WEB-DLRip, Любительский (многоголосый) ["Синема УС"] ] pb.wtf

Случайный тропический рай через торрент pb.wtf

Размер: 1.37 GB | Добавлен: 3 года 7 мес. назад | Торрент скачан:258 раз
Скачать  

15-06-2017 04:00 Случайный тропический рай Скачать торрент  

Случайный тропический рай / Random Tropical Paradise
Год выпуска: 2017
Страна: США
Жанр: комедия
Продолжительность: 01:42:22
Перевод: Любительский (многоголосый) ["Синема УС"]
Субтитры: нет

Режиссер: Санджив Сирпал / Sanjeev Sirpal

rating

В ролях: Брайан Гринберг, Брукс Уилан, Спенсер Грэммер, Джо Пантольяно, Бет Литтлфорд, Бриттани Фурлан, Альфонсо МакОли, Кайл Кинан, Джессика Лоу, Айден Майэри

Описание: В жизни Гарри Фладера все было как надо: у него была идеальная работа, верные друзья и идеальная девушка. Однако оказалось все идет не так гладко: один из его не совсем верных друзей завел интрижку с возлюбленной Гарри. После отмены свадьбы, Гарри в пьяном угаре пытался понять, что могло пойти не так. Шаферу Гарри, Боуи, в голову приходит гениальная идея: зачем отменять медовый месяц в тропиках, когда можно поехать туда вместе со своим другом! Обычный пляжный отдых превращается в приключение эпического размаха. Гарри и Боуи смогут отлично провести время, только если смогут выжить в Случайном Тропическом Рае.

Доп. информация: Есть реклама.

Качество: WEB-DLRip
Формат: AVI
Видео кодек: XviD
Аудио кодек: AC3
Видео: XviD,1709 kb/s, 720x304
Аудио#1: AC3, 192 kb/s ,2 ch




General
Complete name : H:\релизы.торрентфайл\Random.Tropical.Paradise.2017.P.WEB-DLRip.14OOMB_KOSHARA.avi
Format : AVI
Format/Info : Audio Video Interleave
File size : 1.37 GiB
Duration : 1h 42mn
Overall bit rate : 1 911 Kbps
Writing application : VirtualDubMod 1.5.10.2 (build 2540/release)
Writing library : VirtualDubMod build 2540/release

Video
ID : 0
Format : MPEG-4 Visual
Format profile : Advanced Simple@L5
Format settings, BVOP : 2
Format settings, QPel : No
Format settings, GMC : No warppoints
Format settings, Matrix : Default (MPEG)
Codec ID : XVID
Codec ID/Hint : XviD
Duration : 1h 42mn
Bit rate : 1 710 Kbps
Width : 720 pixels
Height : 304 pixels
Display aspect ratio : 2.35:1
Frame rate : 23.976 fps
Color space : YUV
Chroma subsampling : 4:2:0
Bit depth : 8 bits
Scan type : Progressive
Compression mode : Lossy
Bits/(Pixel*Frame) : 0.326
Stream size : 1.22 GiB (89%)
Writing library : XviD 1.2.1 (UTC 2008-12-04)

Audio
ID : 1
Format : AC-3
Format/Info : Audio Coding 3
Mode extension : CM (complete main)
Format settings, Endianness : Big
Codec ID : 2000
Duration : 1h 42mn
Bit rate mode : Constant
Bit rate : 192 Kbps
Channel(s) : 2 channels
Channel positions : Front: L R
Sampling rate : 48.0 KHz
Bit depth : 16 bits
Compression mode : Lossy
Stream size : 141 MiB (10%)
Alignment : Split accross interleaves
Interleave, duration : 42 ms (1.00 video frame)
Interleave, preload duration : 500 ms

pb.wtf



Скачать Случайный тропический рай через торрент http://i95.fastpic.ru/big/2017/0615/69/11c6a4af723a2cd290cb757e381e3069.jpg Скачать фильм Случайный тропический рай через торрент бесплантно в хорошем качестве Описание: В жизни Гарри Фладера все было как надо: у него была идеальная работа, верные друзья и идеальная девушка. Однако оказалось все ... 7 10 3
Торрент: Зарегистрирован [2017-06-15 04:00] · скачан: 258 раз
Статус: T временная
Размер: 1.37 GB
Как cкачать? Как скачать Случайный тропический рай через торрент | UTorrent

% Раздел Тема Автор DL S | L
T Фильмы 2017 [DVDrip, WEB-DLRip, HDrip] (DUB, MVO) [ 700 MB ] Случайный тропический рай / Random Tropical Paradise [2017 WEB-DLRip Любительский ["Синема УС"] ] Sherif Скачать
1 | 0

28-11-2019 20:33  

Отключить всю рекламу на сайте

    Дорогой пользователь! Огромная просьба, поблагодарите релизера, оцените раздачу и оставьте свои комментарий, если Вы скачали Случайный тропический рай через торрент бесплатно! Внесите свою лепту в развитие PiratBit!
    Комментировать посты могут только пользователи прошедшие не сложную регистрацию
    Показать сообщения:    

    Случайный тропический рай через торрент
    Скачать бесплатно Случайный тропический рай
    Случайный тропический рай скачать торрент
    Случайный тропический рай смотреть онлайн
    Cкачать фильм Случайный тропический рай бесплатно
    Случайный тропический рай скачать торрент в хорошем качестве
    Случайный тропический рай смотреть онлайн бесплатно в хорошем качестве


    Вы не можете начинать темы
    Вы не можете отвечать на сообщения
    Вы не можете редактировать свои сообщения
    Вы не можете удалять свои сообщения
    Вы не можете голосовать в опросах
    Вы не можете прикреплять файлы к сообщениям
    Вы можете скачивать файлы