Ссылка на приватное зеркало нашего сайта всего за 1$. Внимание количество ограничено!!!

2 сезон

iTunes

1 сезон

1

2 сезон

2 сезон

iTunes

1 сезон

RePack

30

Ultimate

ВАЖНО

ИГРА 18+

pack

RePack

MK11
pack

Забери бонус

RePack

jed

!!Акция!!

Alien_Rage

RePack

fifa19

RePack

Assassins Creed: Odyssey

RePack

NEED FOR SPEED™ PAYBACK

4 сезон

9 сезон

Бесстыжие 9 сезон

Все сериалы

все сериалы на PB.wtf

RePack

FAR CRY 5
  

Джеймстаун / Jamestown / Сезон: 1 / Серии: 1-8 из 8 (Сэмюэл Донован, Пол Вильшурст, Джон Александр) [2017, драма, история, HDTVRip] [MVO] (Jaskier) pb.wtf

Джеймстаун через торрент pb.wtf

Размер: 4.5 GB | Добавлен: 3 года 4 мес. назад | Торрент скачан:68 раз
Скачать  

15-06-2017 07:26 Джеймстаун Скачать торрент  

Джеймстаун | Jamestown Год выпуска: 2017
Страна: Великобритания
Жанр: Драма, история
Продолжительность: ~ 00:59:00
Перевод: Профессиональный (многоголосый закадровый) | Jaskier

Режиссёр: Сэмюэл Донован, Пол Вильшурст, Джон Александр

В ролях: Гвилим Ли, Наоми Баттрик, Клер Кокс, Стюарт Мартин, Юджин «Храбрый камень», Люк Роскелл, Софи Рандл и др.

Описание: Действие исторической драмы происходит в начале XVII века. Первые английские колонисты высаживаются на Американский континент, чтобы создать здесь поселения. В 1607 году был основан Джеймстаун, положивший начало освоению Нового Света.



Качество: HDTVRip
Формат: AVI
Видео: XviD, ~ 1400 kbps, 720x304 (2,35:1), 25 fps
Аудио 1: MP3, 48,0 КГц, 2 ch, 128 kbps - Rus
Аудио 2: MP3, 48,0 КГц, 2 ch, 128 kbps - Eng
Субтитры: нет
Переведено и озвучено: студией Jaskier
Общее
Полное имя                               : D:\загрузки\Jamestown. Season 1 (HDTVRip l 400p l Jaskier)\Jamestown.s01e01.HDTVRip.Rus.Eng.Jaskier.avi
Формат                                   : AVI
Формат/Информация                        : Audio Video Interleave
Размер файла                             : 751 Мбайт
Продолжительность                        : 1 ч. 5 м.
Общий поток                              : 1603 Кбит/сек
Программа кодирования                    : VirtualDubMod 1.5.10.3 | www.virtualdub-fr.org || (build 2550/release)
Библиотека кодирования                   : VirtualDubMod build 2550/release

Видео
Идентификатор                            : 0
Формат                                   : MPEG-4 Visual
Профиль формата                          : Advanced Simple@L5
Параметр BVOP формата                    : 1
Параметр QPel формата                    : Нет
Параметр GMC формата                     : Без точки перехода
Параметр матрицы формата                 : Default (MPEG)
Идентификатор кодека                     : XVID
Идентификатор кодека/Подсказка           : XviD
Продолжительность                        : 1 ч. 5 м.
Битрейт                                  : 1333 Кбит/сек
Ширина                                   : 720 пикселей
Высота                                   : 304 пикселя
Соотношение сторон                       : 2,35:1
Частота кадров                           : 25,000 кадров/сек
Цветовое пространство                    : YUV
Субдискретизация насыщенности            : 4:2:0
Битовая глубина                          : 8 бит
Тип развёртки                            : Прогрессивная
Метод сжатия                             : С потерями
Бит/(Пиксели*Кадры)                      : 0.244
Размер потока                            : 624 Мбайт (83%)
Библиотека кодирования                   : XviD 73

Аудио #1
Идентификатор                            : 1
Формат                                   : MPEG Audio
Версия формата                           : Version 1
Профиль формата                          : Layer 3
Режим                                    : Joint stereo
Расширение режима                        : MS Stereo
Идентификатор кодека                     : 55
Идентификатор кодека/Подсказка           : MP3
Продолжительность                        : 1 ч. 5 м.
Вид битрейта                             : Постоянный
Битрейт                                  : 128 Кбит/сек
Каналы                                   : 2 канала
Частота                                  : 48,0 КГц
Метод сжатия                             : С потерями
Размер потока                            : 60,0 Мбайт (8%)
Выравнивание                             : Соединение по промежуткам
Продолжительность промежутка             : 40  мс. (1,00 видеокадр)
Время предзагрузки промежутка            : 504  мс.

Аудио #2
Идентификатор                            : 2
Формат                                   : MPEG Audio
Версия формата                           : Version 1
Профиль формата                          : Layer 3
Режим                                    : Joint stereo
Расширение режима                        : MS Stereo
Идентификатор кодека                     : 55
Идентификатор кодека/Подсказка           : MP3
Продолжительность                        : 1 ч. 5 м.
Вид битрейта                             : Постоянный
Битрейт                                  : 128 Кбит/сек
Каналы                                   : 2 канала
Частота                                  : 48,0 КГц
Метод сжатия                             : С потерями
Размер потока                            : 60,0 Мбайт (8%)
Выравнивание                             : Соединение по промежуткам
Продолжительность промежутка             : 40  мс. (1,00 видеокадр)
Время предзагрузки промежутка            : 504  мс.
Когда раздача ведётся путём добавления новых серий, при каждом добавлении создётся новый торрент. Чтобы начать докачку новой серии, пользователям необходимо сделать следующее:
(1) остановить скачивание,
(2) удалить старый торрент у себя из клиента (старые серии удалять не надо),
(3) скачать новый торрент и запустить его у себя в клиенте вместо старого, при этом указать клиенту путь в старую папку, куда и должно происходить скачивание новых серий.
Ваш клиент при этом должен произвести хеширование (проверку) старой папки (если не производит сам - помогите ему сделать это), и будет докачивать только те серии, которых у вас ещё нет. Старые серии при этом не удаляются, а продолжают раздаваться!
Eсли вы уже удалили старые серии, то предотвратить повторную закачку старых серий можно, отжав галочку в соответсвующих местах при запуске нового торрента. По возможности, желательно не удалять старые серии как можно дольше, чтобы релизёр не столько продолжал раздавать старые серии, а смог сконцентрироваться на новых.
pb.wtf



Скачать Джеймстаун через торрент http://i94.fastpic.ru/big/2017/0614/bc/8c4ab5b0767a31aed9855202975b9fbc.jpg Скачать фильм Джеймстаун через торрент бесплантно в хорошем качестве Описание: Действие исторической драмы происходит в начале XVII века. Первые английские колонисты высаживаются на Американский континент, ... 8.5 10 8
Торрент: Зарегистрирован [2017-06-29 13:43] · скачан: 68 раз
Статус: √ проверено
Размер: 4.5 GB
Как cкачать? Как скачать Джеймстаун через торрент | qTorrent

% Раздел Тема Автор DL S | L
Зарубежные сериалы [ 8.41 GB ] Джеймстаун / Jamestown / Сезон: 2 / Серии: 1-8 из 8 [2018 история HDTVRip 720p] [MVO] killermax2013 Скачать
1 | 0
Зарубежные сериалы [ 12.92 GB ] Джеймстаун / Jamestown / Сезон: 1 / Серии: 1-8 из 8 [2017 история BDRip 720p] [MVO] killermax2013 Скачать
1 | 0
Зарубежные сериалы [ 7.81 GB ] Джеймстаун / Jamestown / Сезон: 1 / Серии: 1-8 из 8 [2017 история HDTVRip 720p] [MVO] killermax2013 Скачать
1 | 0


Последний раз редактировалось: killermax2013 (2017-06-29 13:43), всего редактировалось 1 раз

28-11-2019 20:33  

Отключить всю рекламу на сайте

21-06-2017 05:11 Джеймстаун Скачать торрент  

+7pb.wtf



29-06-2017 13:43 Джеймстаун Скачать торрент  

+ 8pb.wtf



24-08-2017 10:20 Джеймстаун Скачать торрент  

сериал норм.pb.wtf



    Дорогой пользователь! Огромная просьба, поблагодарите релизера, оцените раздачу и оставьте свои комментарий, если Вы скачали Джеймстаун через торрент бесплатно! Внесите свою лепту в развитие PiratBit!
    Комментировать посты могут только пользователи прошедшие не сложную регистрацию
    Показать сообщения:    

    Джеймстаун через торрент
    Скачать бесплатно Джеймстаун
    Джеймстаун скачать торрент
    Джеймстаун смотреть онлайн
    Cкачать фильм Джеймстаун бесплатно
    Джеймстаун скачать торрент в хорошем качестве
    Джеймстаун смотреть онлайн бесплатно в хорошем качестве


    Вы не можете начинать темы
    Вы не можете отвечать на сообщения
    Вы не можете редактировать свои сообщения
    Вы не можете удалять свои сообщения
    Вы не можете голосовать в опросах
    Вы не можете прикреплять файлы к сообщениям
    Вы можете скачивать файлы