2 сезон

iTunes

MVO

1

2 сезон

iTunes

iTunes

1 сезон

RePack

30

Ultimate

ВАЖНО

ИГРА 18+

pack

RePack

MK11
pack

Легкие деньги

RePack

jed

RePack

fifa19

RePack

RDR2

RePack

NEED FOR SPEED™ PAYBACK

4 сезон

9 сезон

Бесстыжие 9 сезон

Все сериалы

все сериалы на PB.wtf

RePack

FAR CRY 5

Anonymous, доброй ночи, мы не успеваем собрать деньги на оплату серверов за декабрь и январь, помогите нам пожалуйста в это трудное время. В качестве благодарности мы отключим Вам всю рекламу на сайте (укажите свой ник в строку Ваше имя)!

×
  
Magnet ссылка

SuperАлиби / Alibi.com (Филипп Лашо) [2017, Комедия, BDRip-AVC] DUB [iTunes] pb.wtf

SuperАлиби через торрент pb.wtf

Размер: 2.11 GB | Добавлен: 3 года 7 мес. назад | Торрент скачан:521 раз
Скачать  

16-06-2017 07:57 SuperАлиби Скачать торрент  

SuperАлиби / Alibi.com
Год выпуска: 2017
Страна: Франция
Жанр: Комедия
Продолжительность: 01:29:10
Перевод: Дубляж [iTunes]

Режиссер: Филипп Лашо

rating

В ролях:

Филипп Лашо, Элоди Фонтан, Жюльен Аррути, Тарек Будали, Дидье Бурдон, Натали Бай, Науэлл Мадани, Меди Садун, Венсан Дезанья, Элис Дюфур

Описание:

Нужно алиби, чтобы втайне от супруги спокойно отдохнуть с друзьями на футболе? Вам поможет агентство по созданию алиби. Нужна отмазка в школе? Обращайтесь! Решили отдохнуть от семьи в выходные? Мы на связи! Этот стартап Грега и его команды уже получил оглушительный успех…

Качество: BDRip-AVC
Формат: MKV
Видео кодек: H.264
Аудио кодек: AC3

Видео: MPEG-4 AVC, 3000 Кбит/с, 1024x552, 24 fps
Аудио#1: [RUS] AC3 | 48 KHz | 5.1 (Front: L С R Side: L R) + LFE | ~384 kbps
скриншот   скриншот   скриншот   скриншот  

Общее
Уникальный идентификатор : 194265831959686661946369243576079869209 (0x92263D00DA092759B68040AA247DE519)
Полное имя : X:�0000Alibi.com.(2017).BDRip-AVC.(qqss44).mkv
Формат : Matroska
Версия формата : Version 2
Размер файла : 2,11 Гбайт
Продолжительность : 1 ч. 29 м.
Общий поток : 3385 Кбит/сек
Название фильма : Alibi.com.(2017).BDRip-AVC.(qqss44)
Дата кодирования : UTC 2017-06-15 18:52:56
Программа кодирования : mkvmerge v5.8.0 ('No Sleep / Pillow') built on Sep 2 2012 15:37:04
Библиотека кодирования : libebml v1.2.3 + libmatroska v1.3.0

Видео
Идентификатор : 1
Формат : AVC
Формат/Информация : Advanced Video Codec
Профиль формата : High@L4.1
Параметр CABAC формата : Да
Параметр ReFrames формата : 10 кадров
Идентификатор кодека : V_MPEG4/ISO/AVC
Продолжительность : 1 ч. 29 м.
Битрейт : 3000 Кбит/сек
Ширина : 1024 пикселя
Высота : 552 пикселя
Соотношение сторон : 1,85:1
Режим частоты кадров : Постоянный
Частота кадров : 24,000 кадра/сек
Цветовое пространство : YUV
Субдискретизация насыщенности : 4:2:0
Битовая глубина : 8 бит
Тип развёртки : Прогрессивная
Бит/(Пиксели*Кадры) : 0.221
Размер потока : 1,83 Гбайт (87%)
Библиотека кодирования : x264 core 148 r2744kMod b97ae06
Настройки программы : cabac=1 / ref=10 / deblock=1:-3:-3 / analyse=0x3:0x133 / me=umh / subme=10 / psy=1 / fade_compensate=0.00 / psy_rd=1.00:0.00 / mixed_ref=1 / me_range=32 / chroma_me=1 / trellis=2 / 8x8dct=1 / cqm=0 / deadzone=21,11 / fast_pskip=0 / chroma_qp_offset=-2 / threads=12 / lookahead_threads=3 / sliced_threads=0 / nr=0 / decimate=0 / interlaced=0 / bluray_compat=0 / constrained_intra=0 / bframes=10 / b_pyramid=2 / b_adapt=2 / b_bias=0 / direct=3 / weightb=1 / open_gop=0 / weightp=2 / keyint=240 / keyint_min=23 / scenecut=40 / intra_refresh=0 / rc=2pass / mbtree=0 / bitrate=3000 / ratetol=1.0 / qcomp=0.70 / qpmin=0 / qpmax=69 / qpstep=4 / cplxblur=20.0 / qblur=0.5 / ip_ratio=1.40 / pb_ratio=1.30 / aq=3:0.90
Язык : English
Default : Да
Forced : Нет

Аудио
Идентификатор : 2
Формат : AC-3
Формат/Информация : Audio Coding 3
Расширение режима : CM (complete main)
Параметр Endianness формата : Big
Идентификатор кодека : A_AC3
Продолжительность : 1 ч. 29 м.
Вид битрейта : Постоянный
Битрейт : 384 Кбит/сек
Каналы : 6 каналов
Расположение каналов : Front: L C R, Side: L R, LFE
Частота : 48,0 КГц
Частота кадров : 31,250 кадров/сек (1536 spf)
Метод сжатия : С потерями
Размер потока : 245 Мбайт (11%)
Язык : Russian
Default : Да
Forced : Нет

Меню
00:00:00.000 : en:00:00:00.000
00:07:35.332 : en:00:07:35.332
00:15:44.207 : en:00:15:44.207
00:20:42.583 : en:00:20:42.583
00:28:32.500 : en:00:28:32.500
00:36:59.291 : en:00:36:59.291
00:43:03.208 : en:00:43:03.208
00:53:31.833 : en:00:53:31.833
01:00:57.458 : en:01:00:57.458
01:07:43.250 : en:01:07:43.250
01:16:11.166 : en:01:16:11.166
01:21:13.707 : en:01:21:13.707

pb.wtf



Скачать SuperАлиби через торрент http://i94.fastpic.ru/big/2017/0615/3f/3270036b73ff0659dc921ed836b8183f.png Скачать фильм SuperАлиби через торрент бесплантно в хорошем качестве Описание: Нужно алиби, чтобы втайне от супруги спокойно отдохнуть с друзьями на футболе? Вам поможет агентство по созданию алиби. Нужна ... 9.5 10 12
Торрент: Зарегистрирован [2017-06-16 07:57] · скачан: 521 раз
Статус: √ проверено
Размер: 2.11 GB
Как cкачать? Как скачать SuperАлиби через торрент | UTorrent

% Раздел Тема Автор DL S | L
Ultra HD (UHD: 2K, 4K, 8K) — видео сверхвысокой чёткости [ 43.21 GB ] SuperАлиби / Alibi.com [2017 UHD BDRemux 2160p] bober100 Скачать
1 | 0
Фильмы [HD 720p, 1080p] (Хороший звук DUB, MVO) [ 4.46 GB ] SuperАлиби / Alibi.com [2017 BDRip 720p] bober100 Скачать
1 | 0
Фильмы 2017 [DVDrip, WEB-DLRip, HDrip] (DUB, MVO) [ 1.42 GB ] SuperАлиби / Alibi.com [2017 BDRip] - Twi7ter Скачать
1 | 0
Фильмы 2017 [DVDrip, WEB-DLRip, HDrip] (DUB, MVO) [ 700 MB ] SuperАлиби / Alibi.com [2017 HDRip] bober100 Скачать
1 | 0
Фильмы (Blu-ray, BD-Remux, HDDVD) [ 25.65 GB ] SuperАлиби / Alibi.com [2017 BD Remux 1080p] bober100 Скачать
1 | 0
Фильмы [HD 720p, 1080p] (Хороший звук DUB, MVO) [ 12.67 GB ] SuperАлиби / Alibi.com [2017 BDRip 1080p] bober100 Скачать
1 | 0
Фильмы 2017 [DVDrip, WEB-DLRip, HDrip] (DUB, MVO) [ 1.37 GB ] SuperАлиби / Alibi.com [2017 HDRip] bober100 Скачать
1 | 0

28-11-2019 20:33  

Отключить всю рекламу на сайте

    Дорогой пользователь! Огромная просьба, поблагодарите релизера, оцените раздачу и оставьте свои комментарий, если Вы скачали SuperАлиби через торрент бесплатно! Внесите свою лепту в развитие PiratBit!
    Комментировать посты могут только пользователи прошедшие не сложную регистрацию
    Показать сообщения:    

    SuperАлиби через торрент
    Скачать бесплатно SuperАлиби
    SuperАлиби скачать торрент
    SuperАлиби смотреть онлайн
    Cкачать фильм SuperАлиби бесплатно
    SuperАлиби скачать торрент в хорошем качестве
    SuperАлиби смотреть онлайн бесплатно в хорошем качестве


    Вы не можете начинать темы
    Вы не можете отвечать на сообщения
    Вы не можете редактировать свои сообщения
    Вы не можете удалять свои сообщения
    Вы не можете голосовать в опросах
    Вы не можете прикреплять файлы к сообщениям
    Вы можете скачивать файлы