Ссылка на приватное зеркало нашего сайта всего за 1$. Внимание количество ограничено!!!

2 сезон

iTunes

1 сезон

1

2 сезон

2 сезон

iTunes

1 сезон

RePack

30

Ultimate

ВАЖНО

ИГРА 18+

pack

RePack

MK11
pack

Забери бонус

RePack

jed

!!Акция!!

Alien_Rage

RePack

fifa19

RePack

Assassins Creed: Odyssey

RePack

NEED FOR SPEED™ PAYBACK

4 сезон

9 сезон

Бесстыжие 9 сезон

Все сериалы

все сериалы на PB.wtf

RePack

FAR CRY 5
  

SuperАлиби / Alibi.com (Филипп Лашо) [2017, комедия, BD Remux 1080p] DUB [iTunes] pb.wtf

SuperАлиби через торрент pb.wtf

Размер: 25.65 GB | Добавлен: 3 года 5 мес. назад | Торрент скачан:31 раз
Скачать  

16-06-2017 10:56 SuperАлиби Скачать торрент  

SuperАлиби / Alibi.comГод выпуска: 2017
Страна: Франция
Жанр: комедия
Продолжительность: 01:29:10
Перевод: Дубляж [iTunes]
Субтитры: Французские (forced)

Режиссер: Филипп Лашо

rating

В ролях:

Филипп Лашо, Элоди Фонтан, Жюльен Аррути, Тарек Будали, Дидье Бурдон, Натали Бай, Науэлл Мадани, Меди Садун, Венсан Дезанья, Элис Дюфур

Описание:

Нужно алиби, чтобы втайне от супруги спокойно отдохнуть с друзьями на футболе? Вам поможет агентство по созданию алиби. Нужна отмазка в школе? Обращайтесь! Решили отдохнуть от семьи в выходные? Мы на связи! Этот стартап Грега и его команды уже получил оглушительный успех

Качество: BD Remux 1080p
Формат: MKV
Видео кодек: H.264
Аудио кодек: AC3/DTS-HD (MA)

Видео: MPEG-4 AVC, 1920x1080, 38.6 Mbit/s, 24.000 fps
Аудио#1: 48 kHz, AC3, 5.1, 384 Kbps | Дублированный | iTunes | RUS |
Аудио#2: 48 kHz, DTS-HD MA, 5.1, 2218 Kbps | Оригинал | FRE |
скриншот  скриншот  скриншот  скриншот  скриншот  

General
Unique ID : 173946195385145977951607112351074316553 (0x82DCD1926BA1AF8C8544DB64C6A57109)
Complete name : F:VideoAlibi.com.2017.BDREMUX.1080p.ExKinoRay.mkv
Format : Matroska
Format version : Version 4 / Version 2
File size : 25.7 GiB
Duration : 1 h 29 min
Overall bit rate mode : Variable
Overall bit rate : 41.2 Mb/s
Encoded date : UTC 2017-06-15 14:06:12
Writing application : mkvmerge v12.0.0 ('Trust / Lust') 64bit
Writing library : libebml v1.3.4 + libmatroska v1.4.5

Video
ID : 1
Format : AVC
Format/Info : Advanced Video Codec
Format profile : High@L4.1
Format settings, CABAC : Yes
Format settings, ReFrames : 2 frames
Codec ID : V_MPEG4/ISO/AVC
Duration : 1 h 29 min
Bit rate mode : Variable
Bit rate : 38.6 Mb/s
Width : 1 920 pixels
Height : 1 080 pixels
Display aspect ratio : 16:9
Frame rate mode : Constant
Frame rate : 24.000 FPS
Color space : YUV
Chroma subsampling : 4:2:0
Bit depth : 8 bits
Scan type : Progressive
Bits/(Pixel*Frame) : 0.775
Stream size : 24.0 GiB (94%)
Language : English
Default : Yes
Forced : No

Audio #1
ID : 2
Format : AC-3
Format/Info : Audio Coding 3
Format settings, Endianness : Big
Codec ID : A_AC3
Duration : 1 h 29 min
Bit rate mode : Constant
Bit rate : 384 kb/s
Channel(s) : 6 channels
Channel positions : Front: L C R, Side: L R, LFE
Sampling rate : 48.0 kHz
Frame rate : 31.250 FPS (1536 spf)
Bit depth : 16 bits
Compression mode : Lossy
Stream size : 245 MiB (1%)
Title : iTunes
Language : Russian
Service kind : Complete Main
Default : Yes
Forced : No

Audio #2
ID : 3
Format : DTS
Format/Info : Digital Theater Systems
Format profile : MA / Core
Mode : 16
Format settings, Endianness : Big
Codec ID : A_DTS
Duration : 1 h 29 min
Bit rate mode : Variable / Constant
Bit rate : 2 218 kb/s / 1 509 kb/s
Channel(s) : 6 channels
Channel positions : Front: L C R, Side: L R, LFE
Sampling rate : 48.0 kHz
Frame rate : 93.750 FPS (512 spf)
Bit depth : 24 bits
Compression mode : Lossless / Lossy
Stream size : 1.38 GiB (5%)
Title : Original
Language : French
Default : No
Forced : No

Text
ID : 4
Format : UTF-8
Codec ID : S_TEXT/UTF8
Codec ID/Info : UTF-8 Plain Text
Duration : 20 s 666 ms
Bit rate : 119 b/s
Count of elements : 7
Stream size : 308 Bytes (0%)
Title : Forced
Language : French
Default : No
Forced : No

Menu
00:00:00.000 : en:00:00:00.000
00:07:35.333 : en:00:07:35.333
00:15:44.208 : en:00:15:44.208
00:20:42.583 : en:00:20:42.583
00:28:32.500 : en:00:28:32.500
00:36:59.292 : en:00:36:59.292
00:43:03.208 : en:00:43:03.208
00:53:31.833 : en:00:53:31.833
01:00:57.458 : en:01:00:57.458
01:07:43.250 : en:01:07:43.250
01:16:11.167 : en:01:16:11.167
01:21:13.708 : en:01:21:13.708

pb.wtf



Скачать SuperАлиби через торрент http://s019.radikal.ru/i643/1706/b6/d5f1722eb2fa.jpg Скачать фильм SuperАлиби через торрент бесплантно в хорошем качестве Описание: Нужно алиби, чтобы втайне от супруги спокойно отдохнуть с друзьями на футболе? Вам поможет агентство по созданию алиби. Нужна ... 10 10 5
Info! Золотая раздача, скачанное не засчитывается.
Торрент: Зарегистрирован [2017-06-16 10:56] · скачан: 31 раз
Статус: √ проверено
Размер: 25.65 GB
Как cкачать? Как скачать SuperАлиби через торрент | qTorrent

% Раздел Тема Автор DL S | L
Ultra HD (UHD: 2K, 4K, 8K) — видео сверхвысокой чёткости [ 43.21 GB ] SuperАлиби / Alibi.com [2017 UHD BDRemux 2160p] bober100 Скачать
1 | 0
Фильмы [HD 720p, 1080p] (Хороший звук DUB, MVO) [ 4.46 GB ] SuperАлиби / Alibi.com [2017 BDRip 720p] bober100 Скачать
1 | 0
Фильмы 2017 [DVDrip, WEB-DLRip, HDrip] (DUB, MVO) [ 1.42 GB ] SuperАлиби / Alibi.com [2017 BDRip] - Twi7ter Скачать
1 | 0
Фильмы 2017 [DVDrip, WEB-DLRip, HDrip] (DUB, MVO) [ 700 MB ] SuperАлиби / Alibi.com [2017 HDRip] bober100 Скачать
1 | 0
Фильмы [HD 720p, 1080p] (Хороший звук DUB, MVO) [ 12.67 GB ] SuperАлиби / Alibi.com [2017 BDRip 1080p] bober100 Скачать
1 | 0
Фильмы 2017 [DVDrip, WEB-DLRip, HDrip] (DUB, MVO) [ 2.11 GB ] SuperАлиби / Alibi.com [2017 BDRip-AVC] bober100 Скачать
1 | 0
Фильмы 2017 [DVDrip, WEB-DLRip, HDrip] (DUB, MVO) [ 1.37 GB ] SuperАлиби / Alibi.com [2017 HDRip] bober100 Скачать
1 | 0

28-11-2019 20:33  

Отключить всю рекламу на сайте

    Дорогой пользователь! Огромная просьба, поблагодарите релизера, оцените раздачу и оставьте свои комментарий, если Вы скачали SuperАлиби через торрент бесплатно! Внесите свою лепту в развитие PiratBit!
    Комментировать посты могут только пользователи прошедшие не сложную регистрацию
    Показать сообщения:    

    SuperАлиби через торрент
    Скачать бесплатно SuperАлиби
    SuperАлиби скачать торрент
    SuperАлиби смотреть онлайн
    Cкачать фильм SuperАлиби бесплатно
    SuperАлиби скачать торрент в хорошем качестве
    SuperАлиби смотреть онлайн бесплатно в хорошем качестве


    Вы не можете начинать темы
    Вы не можете отвечать на сообщения
    Вы не можете редактировать свои сообщения
    Вы не можете удалять свои сообщения
    Вы не можете голосовать в опросах
    Вы не можете прикреплять файлы к сообщениям
    Вы можете скачивать файлы