Ссылка на приватное зеркало всего за 1$. Внимание количество ограничено!!!

iTunes

iTunes

iTunes

1

iTunes

iTunes

iTunes

iTunes

iTunes

30
pack

$ от Little Big

ВАЖНО

!!Акция!!

Alien_RageХит недели

RePack

Resident Evil 21

ИГРА 18+

pack

RePack

jed

!!Акция!!

Alien_Rage

RePack

fifa19

RePack

Assassins Creed: Odyssey

RePack

NEED FOR SPEED™ PAYBACK

4 сезон

9 сезон

Бесстыжие 9 сезон

Все сериалы

все сериалы на PB.wtf

RePack

FAR CRY 5
  

Охотник с Уолл-стрит / The Headhunter's Calling (Марк Уильямс) [2016 г., драма, WEB-DL 1080p] [DUB] [Лицензия / iTunes] pb.wtf

Охотник с Уолл-стрит через торрент pb.wtf

Раздают: 1 [ 0 KB/s ]
Размер: 4.13 GB | Добавлен: 3 года назад | Торрент скачан:740 раз
Скачать  

16-06-2017 12:45 Охотник с Уолл-стрит Скачать торрент  

Охотник с Уолл-стрит / The Headhunter's Calling
Год выхода: 2016
Страна: США, Канада
Жанр: драма
Продолжительность: 01:50:15
Перевод: Профессиональный (полное дублирование) [Лицензия / iTunes]
Субтитры: Отсутствуют

Режиссер: Марк Уильямс

В ролях: Элисон Бри, Джерард Батлер, Уиллем Дефо, Гретхен Мол, Дастин Миллиган, Альфред Молина, Кэтлин Манро, Джулия Баттерз, Анупам Кхер, Синди Дэй

О фильме: Циничный и обаятельный хедхантер с Уолл-стрит Дэйн Дженсен близок к осуществлению своей американской мечты и покорению бизнес-олимпа. Но его карьерные интересы внезапно входят в противоречие с жизнью его семьи. Перед Дэйном встает непростой вопрос выбора.


Качество: WEB-DL 1080p
Формат: MKV
Видео кодек: AVC
Аудио кодек: AC3
Видео: AVC, 1916x798, 23.976 fps, 4946 Кбит/с
Аудио: 48.0 KHz, AC3, 384 kb/s, 6 ch - DUB
Аудио: 48.0 KHz, AC3, 384 kb/s, 6 ch - ENG
General
Unique ID : 226964775781579432498956495545227226735 (0xAABFD3679F17749D916904376C0B2E6F)
Complete name : E:\The.Headhunter's.Calling.2O16.D.WEB-DL.1080p.mkv
Format : Matroska
Format version : Version 4 / Version 2
File size : 4.13 GiB
Duration : 1h 50mn
Overall bit rate : 5 366 Kbps
Encoded date : UTC 2017-06-16 09:51:39
Writing application : mkvmerge v8.3.0 ('Over the Horizon') 64bit
Writing library : libebml v1.3.1 + libmatroska v1.4.2

Video
ID : 1
Format : AVC
Format/Info : Advanced Video Codec
Format profile : High@L4
Format settings, CABAC : Yes
Format settings, ReFrames : 5 frames
Codec ID : V_MPEG4/ISO/AVC
Duration : 1h 50mn
Bit rate : 4 491 Kbps
Width : 1 916 pixels
Height : 798 pixels
Display aspect ratio : 2.40:1
Frame rate mode : Constant
Frame rate : 23.976 fps
Color space : YUV
Chroma subsampling : 4:2:0
Bit depth : 8 bits
Scan type : Progressive
Bits/(Pixel*Frame) : 0.123
Stream size : 3.46 GiB (84%)
Language : English
Default : Yes
Forced : No
Color range : Limited
Color primaries : BT.709
Transfer characteristics : BT.709
Matrix coefficients : BT.709

Audio #1
ID : 2
Format : AC-3
Format/Info : Audio Coding 3
Mode extension : CM (complete main)
Format settings, Endianness : Big
Codec ID : A_AC3
Duration : 1h 50mn
Bit rate mode : Constant
Bit rate : 384 Kbps
Channel(s) : 6 channels
Channel positions : Front: L C R, Side: L R, LFE
Sampling rate : 48.0 KHz
Compression mode : Lossy
Stream size : 303 MiB (7%)
Language : Russian
Default : Yes
Forced : No

Audio #2
ID : 3
Format : AC-3
Format/Info : Audio Coding 3
Mode extension : CM (complete main)
Format settings, Endianness : Big
Codec ID : A_AC3
Duration : 1h 50mn
Bit rate mode : Constant
Bit rate : 384 Kbps
Channel(s) : 6 channels
Channel positions : Front: L C R, Side: L R, LFE
Sampling rate : 48.0 KHz
Compression mode : Lossy
Stream size : 303 MiB (7%)
Language : English
Default : No
Forced : No

Menu
00:00:00.000 : en:Chapter 1
00:08:56.494 : en:Chapter 2
00:20:53.085 : en:Chapter 3
00:29:33.105 : en:Chapter 4
00:38:20.172 : en:Chapter 5
00:47:40.607 : en:Chapter 6
00:57:22.480 : en:Chapter 7
01:07:39.471 : en:Chapter 8
01:17:40.487 : en:Chapter 9
01:25:16.693 : en:Chapter 10
01:35:09.619 : en:Chapter 11
01:45:37.330 : en:Chapter 12
pb.wtf



Скачать Охотник с Уолл-стрит через торрент http://i95.fastpic.ru/big/2017/0522/27/7ace48bdb5e9488fd6911bb64407a327.png Скачать фильм Охотник с Уолл-стрит через торрент бесплантно в хорошем качестве О фильме: Циничный и обаятельный хедхантер с Уолл-стрит Дэйн Дженсен близок к осуществлению своей американской мечты и покорению ... 10 10 22
Info! Золотая раздача, скачанное не засчитывается.
Торрент: Зарегистрирован [2017-06-16 12:45] · скачан: 740 раз
Статус: √ проверено
Размер: 4.13 GB
Как cкачать? Как скачать Охотник с Уолл-стрит через торрент | qTorrent



Последний раз редактировалось: killermax2013 (2017-06-16 16:09), всего редактировалось 1 раз

28-11-2019 20:33  

Отключить всю рекламу на сайте

16-06-2017 15:01 Охотник с Уолл-стрит Скачать торрент  

Скриншоты точно с этого фильма?pb.wtf



17-06-2017 23:05 Охотник с Уолл-стрит Скачать торрент  

Messa-fan писал(а):

Скриншоты точно с этого фильма?

Даpb.wtf



18-06-2017 10:12 Охотник с Уолл-стрит Скачать торрент  

Спасибо за фильм, обязательно посмотрю. pb.wtf



18-06-2017 16:23 Охотник с Уолл-стрит Скачать торрент  

Фильм понравился. Вот только Уолл-Стрит находится в Нью-Йорке, а не в Чикаго, чудеса русского перевода pb.wtf



    Дорогой пользователь! Огромная просьба, поблагодарите релизера, оцените раздачу и оставьте свои комментарий, если Вы скачали Охотник с Уолл-стрит через торрент бесплатно! Внесите свою лепту в развитие PiratBit!
    Комментировать посты могут только пользователи прошедшие не сложную регистрацию
    Показать сообщения:    

    Охотник с Уолл-стрит через торрент
    Скачать бесплатно Охотник с Уолл-стрит
    Охотник с Уолл-стрит скачать торрент
    Охотник с Уолл-стрит смотреть онлайн
    Cкачать фильм Охотник с Уолл-стрит бесплатно
    Охотник с Уолл-стрит скачать торрент в хорошем качестве
    Охотник с Уолл-стрит смотреть онлайн бесплатно в хорошем качестве


    Вы не можете начинать темы
    Вы не можете отвечать на сообщения
    Вы не можете редактировать свои сообщения
    Вы не можете удалять свои сообщения
    Вы не можете голосовать в опросах
    Вы не можете прикреплять файлы к сообщениям
    Вы можете скачивать файлы