Ссылка на приватное зеркало всего за 1$. Внимание количество ограничено!!!

iTunes

iTunes

iTunes

1

iTunes

iTunes

iTunes

iTunes

iTunes

30
pack

$ от Little Big

ВАЖНО

!!Акция!!

Alien_RageХит недели

RePack

Resident Evil 21

ИГРА 18+

pack

RePack

jed

!!Акция!!

Alien_Rage

RePack

fifa19

RePack

Assassins Creed: Odyssey

RePack

NEED FOR SPEED™ PAYBACK

4 сезон

9 сезон

Бесстыжие 9 сезон

Все сериалы

все сериалы на PB.wtf

RePack

FAR CRY 5
  

Охотник с Уолл-стрит / The Headhunter's Calling (Марк Уильямс) [2016, драма, WEB-DLRip 720p] DUB [iTunes] pb.wtf

Охотник с Уолл-стрит через торрент pb.wtf

Размер: 3.63 GB | Добавлен: 3 года назад | Торрент скачан:368 раз
Скачать  

16-06-2017 15:30 Охотник с Уолл-стрит Скачать торрент  

Охотник с Уолл-стрит / The Headhunter's Calling
Год выпуска: 2016
Страна: США Канада
Жанр: драма
Продолжительность: 01:50:15
Перевод: Дубляж [iTunes]
Субтитры: отсутствуют

Режиссер: Марк Уильямс

rating

В ролях:

Элисон Бри, Джерард Батлер, Уиллем Дефо, Гретхен Мол, Дастин Миллиган, Альфред Молина, Кэтлин Манро, Джулия Баттерз, Анупам Кхер, Синди Дэй

Описание:

Фильм повествует о нелёгких буднях беспринципного "охотника за головами" Дэйна Дженсена (Джерард Батлер), менеджера крупной рекрутинговой компании, чей босс уходит на пенсию и освобождает своё место для молодого и инициативного сотрудника. Получив желаемую должность, Дэйн полностью концетрируется на работе, но получает настоящий удар судьбы - у его десятилетнего сына диагностируют рак. С этого момента его мечта стать владельцем собственной крупной компании уже не кажется достижимой, герой оказывается перед выбором: семья или карьера.

Качество: WEB-DLRip 720p
Формат: MKV
Видео кодек: H.264
Аудио кодек: AC3

Видео: 1280x536, 23.976 fps, 3950 Кбит/с
Аудио#1: AC-3, 48.0 KHz, 6 ch, 384 Kbps, CBR | Русский
Аудио#2: AC-3, 48.0 KHz, 6 ch, 384 Kbps, CBR | Английский
скриншот   скриншот   скриншот  

Общее
Уникальный идентификатор : 237338538027154253608804883788371881141 (0xB28DBD5F3B1D8209BC9B6D72E7006CB5)
Полное имя : D:\The.Headhunter's.Calling.2O16.D.WEB-DL.720p.mkv
Формат : Matroska
Версия формата : Version 4 / Version 2
Размер файла : 3,63 Гбайт
Продолжительность : 1 ч. 50 м.
Общий поток : 4720 Кбит/сек
Название фильма : Beauty.and.the.Beast.2017.1080p.3D.BluRay.Half-OU.x264.DTS-HD.MA.7.1-FGT
Дата кодирования : UTC 2017-06-16 09:50:45
Программа кодирования : mkvmerge v8.3.0 ('Over the Horizon') 64bit
Библиотека кодирования : libebml v1.3.1 + libmatroska v1.4.2

Видео
Идентификатор : 1
Формат : AVC
Формат/Информация : Advanced Video Codec
Профиль формата : High@L4.1
Параметр CABAC формата : Да
Параметр ReFrames формата : 9 кадров
Идентификатор кодека : V_MPEG4/ISO/AVC
Продолжительность : 1 ч. 50 м.
Битрейт : 3950 Кбит/сек
Ширина : 1280 пикселей
Высота : 536 пикселей
Соотношение сторон : 2,40:1
Режим частоты кадров : Постоянный
Частота кадров : 23,976 (24000/1001) кадра/сек
Цветовое пространство : YUV
Субдискретизация насыщенности : 4:2:0
Битовая глубина : 8 бит
Тип развёртки : Прогрессивная
Бит/(Пиксели*Кадры) : 0.240
Размер потока : 3,04 Гбайт (84%)
Заголовок : A.Family.Man.2017.720p.WEB-DL.x264.DD5.1-iFT
Библиотека кодирования : x264 core 142 r2431+42 c69a006 tMod [8-bit@all X86_64]
Настройки программы : cabac=1 / ref=9 / deblock=1:-3:-3 / analyse=0x3:0x133 / me=umh / subme=8 / psy=1 / fade_compensate=0.00 / psy_rd=1.05:0.15 / mixed_ref=1 / me_range=48 / chroma_me=1 / trellis=2 / 8x8dct=1 / cqm=0 / deadzone=21,11 / fast_pskip=1 / chroma_qp_offset=-3 / threads=16 / lookahead_threads=4 / sliced_threads=0 / nr=0 / decimate=0 / interlaced=0 / bluray_compat=0 / constrained_intra=0 / fgo=0 / bframes=4 / b_pyramid=2 / b_adapt=2 / b_bias=0 / direct=3 / weightb=1 / open_gop=0 / weightp=2 / keyint=240 / keyint_min=23 / scenecut=40 / intra_refresh=0 / rc_lookahead=60 / rc=2pass / mbtree=1 / bitrate=3950 / ratetol=1.0 / qcomp=0.70 / qpmin=0:0:0 / qpmax=69:69:69 / qpstep=4 / cplxblur=20.0 / qblur=0.5 / vbv_maxrate=50000 / vbv_bufsize=62500 / nal_hrd=none / filler=0 / ip_ratio=1.30 / aq=1:0.80 / aq-sensitivity=10.00 / aq-factor=1.00:1.00:1.00 / aq2=0 / aq3=0
Default : Да
Forced : Нет
Цветовой диапазон : Limited
Основные цвета : BT.709
Характеристики трансфера : BT.709
Коэффициенты матрицы : BT.709

Аудио #1
Идентификатор : 2
Формат : AC-3
Формат/Информация : Audio Coding 3
Расширение режима : CM (complete main)
Параметр Endianness формата : Big
Идентификатор кодека : A_AC3
Продолжительность : 1 ч. 50 м.
Вид битрейта : Постоянный
Битрейт : 384 Кбит/сек
Каналы : 6 каналов
Расположение каналов : Front: L C R, Side: L R, LFE
Частота : 48,0 КГц
Частота кадров : 31,250 кадров/сек (1536 spf)
Метод сжатия : С потерями
Размер потока : 303 Мбайт (8%)
Язык : Russian
Default : Да
Forced : Нет

Аудио #2
Идентификатор : 3
Формат : AC-3
Формат/Информация : Audio Coding 3
Расширение режима : CM (complete main)
Параметр Endianness формата : Big
Идентификатор кодека : A_AC3
Продолжительность : 1 ч. 50 м.
Вид битрейта : Постоянный
Битрейт : 384 Кбит/сек
Каналы : 6 каналов
Расположение каналов : Front: L C R, Side: L R, LFE
Частота : 48,0 КГц
Частота кадров : 31,250 кадров/сек (1536 spf)
Метод сжатия : С потерями
Размер потока : 303 Мбайт (8%)
Заголовок : English
Язык : English
Default : Нет
Forced : Нет

pb.wtf



Скачать Охотник с Уолл-стрит через торрент http://img11.lostpic.net/2017/05/22/39c49d4e9ec4070257c08949b0ced8fc.png Скачать фильм Охотник с Уолл-стрит через торрент бесплантно в хорошем качестве Описание: Фильм повествует о нелёгких буднях беспринципного "охотника за головами" Дэйна Дженсена (Джерард Батлер), менеджера крупной ... 8.6 10 8
Торрент: Зарегистрирован [2017-06-16 15:30] · скачан: 368 раз
Статус: T временная
Размер: 3.63 GB
Как cкачать? Как скачать Охотник с Уолл-стрит через торрент | qTorrent

28-11-2019 20:33  

Отключить всю рекламу на сайте

18-06-2017 14:35 Охотник с Уолл-стрит Скачать торрент  

нормальный фильмpb.wtf



    Дорогой пользователь! Огромная просьба, поблагодарите релизера, оцените раздачу и оставьте свои комментарий, если Вы скачали Охотник с Уолл-стрит через торрент бесплатно! Внесите свою лепту в развитие PiratBit!
    Комментировать посты могут только пользователи прошедшие не сложную регистрацию
    Показать сообщения:    

    Охотник с Уолл-стрит через торрент
    Скачать бесплатно Охотник с Уолл-стрит
    Охотник с Уолл-стрит скачать торрент
    Охотник с Уолл-стрит смотреть онлайн
    Cкачать фильм Охотник с Уолл-стрит бесплатно
    Охотник с Уолл-стрит скачать торрент в хорошем качестве
    Охотник с Уолл-стрит смотреть онлайн бесплатно в хорошем качестве


    Вы не можете начинать темы
    Вы не можете отвечать на сообщения
    Вы не можете редактировать свои сообщения
    Вы не можете удалять свои сообщения
    Вы не можете голосовать в опросах
    Вы не можете прикреплять файлы к сообщениям
    Вы можете скачивать файлы