2 сезон

iTunes

MVO

1

2 сезон

iTunes

iTunes

1 сезон

RePack

30

Новинка

ВАЖНО

ИГРА 18+

pack

RePack

MK11
pack

Легкие деньги

RePack

jed

RePack

fifa19

RePack

RDR2

RePack

NEED FOR SPEED™ PAYBACK

4 сезон

9 сезон

Бесстыжие 9 сезон

Все сериалы

все сериалы на PB.wtf

RePack

FAR CRY 5

Anonymous, добрый вечер, мы не успеваем собрать деньги на оплату серверов за декабрь и январь, помогите нам пожалуйста в это трудное время. В качестве благодарности мы отключим Вам всю рекламу на сайте (укажите свой ник в строку Ваше имя)!

×
  
Magnet ссылка

Красавица и чудовище в 3Д / Beauty and the Beast 3D (Билл Кондон ) [2017, мюзикл, фэнтези, мелодрама, BDRip 1080p] Дубляж [iTunes] Half OverUnder / Вертикальная анаморфная стереопара pb.wtf

Красавица и чудовище в 3Д через торрент pb.wtf

Качают: 1 [ 0 KB/s ]
Размер: 9.31 GB | Добавлен: 3 года 7 мес. назад | Торрент скачан:396 раз
Скачать  

16-06-2017 16:01 Красавица и чудовище в 3Д Скачать торрент  

Красавица и чудовище в 3ДBeauty and the Beast 3D«Вы наш гость» Год выпуска: 2017
Страна: США
Жанр: мюзикл, фэнтези, мелодрама, семейный
Продолжительность: 02:09:16
Перевод: Профессиональный дублированный - iTunes
Режиссер: Билл Кондон
В ролях:
Эмма Уотсон (Belle), Дэн Стивенс (Beast), Люк Эванс (Gaston), Джош Гад (LeFou), Кевин Клайн (Maurice), Хэтти Морахэн (Agathe / Enchantress), Хейдн Гвин (Clothilde), Джерард Хоран (Jean the Potter), Рэй Фиарон (Père Robert), Юэн МакГрегор (Lumière), Иэн МакКеллен (Cogsworth), Эмма Томпсон (Mrs. Potts)
Описание:
Обозлённая Волшебница превратила принца Адама в отвратительное чудовище за то, что тот был злым, самовлюблённым и грубым. Чтобы снять чары с себя и слуг своего замка, ему необходимо научиться быть добрым, любить и быть любимым. Произойти это должно до того, как с розы, подаренной Волшебницей, упадёт последний лепесток.
Рейтинг:

MPAA: PG - Рекомендуется присутствие родителей
Качество: BDRip 1080p (by Ash61)
Формат: MKV
Формат 3D: Half OverUnder / Вертикальная анаморфная стереопара
Видео: AVC, 1920x1080 (16:9), 9078 kbps, 23,976 fps, 0,183 bpp
Аудио №1: русский / AC3 / 5.1 / 48 kHz / 384 kbps / ||
Аудио №2: английский / AC3 / 5.1 / 48 kHz / 640 kbps /
Навигация по главам: есть
Субтитры (внешние SRT UTF-8): Русские Полные, English Full, English SDH
General
Unique ID : 224257998322264978221133461158081693929 (0xA8B684F8F3EEFF4EB2F57124AF5988E9)
Complete name : BeautyAndTheBeast(2017)3D-halfOU(Ash61)iTunes.mkv
Format : Matroska
Format version : Version 2
File size : 9.31 GiB
Duration : 2 h 9 min
Overall bit rate : 10.3 Mb/s
Movie name : Красавица и чудовище / Beauty and the Beast (2017) в 3Д
Encoded date : UTC 2017-06-16 11:38:27
Writing application : mkvmerge v5.8.0 ('No Sleep / Pillow') built on Sep 2 2012 15:37:04
Writing library : libebml v1.2.3 + libmatroska v1.3.0

Video
ID : 1
Format : AVC
Format/Info : Advanced Video Codec
Format profile : High@L4.1
Format settings, CABAC : Yes
Format settings, ReFrames : 4 frames
Codec ID : V_MPEG4/ISO/AVC
Duration : 2 h 9 min
Bit rate : 9 079 kb/s
Width : 1 920 pixels
Height : 1 080 pixels
Display aspect ratio : 16:9
Frame rate mode : Constant
Frame rate : 23.976 (24000/1001) FPS
Color space : YUV
Chroma subsampling : 4:2:0
Bit depth : 8 bits
Scan type : Progressive
Bits/(Pixel*Frame) : 0.183
Stream size : 8.20 GiB (88%)
Title : BDRip by Ash61
Writing library : x264 core 146 r2538 121396c
Encoding settings : cabac=1 / ref=4 / deblock=1:-3:-3 / analyse=0x3:0x113 / me=umh / subme=10 / psy=1 / psy_rd=1.00:0.00 / mixed_ref=1 / me_range=32 / chroma_me=1 / trellis=2 / 8x8dct=1 / cqm=0 / deadzone=21,11 / fast_pskip=1 / chroma_qp_offset=-2 / threads=12 / lookahead_threads=3 / sliced_threads=0 / nr=0 / decimate=1 / interlaced=0 / bluray_compat=0 / constrained_intra=0 / bframes=12 / b_pyramid=2 / b_adapt=2 / b_bias=0 / direct=3 / weightb=1 / open_gop=0 / weightp=2 / keyint=250 / keyint_min=23 / scenecut=40 / intra_refresh=0 / rc_lookahead=60 / rc=crf / mbtree=0 / crf=16.5 / qcomp=0.70 / qpmin=0 / qpmax=69 / qpstep=4 / vbv_maxrate=40000 / vbv_bufsize=30000 / crf_max=0.0 / nal_hrd=none / filler=0 / frame-packing=4 / ip_ratio=1.40 / pb_ratio=1.30 / aq=1:0.70
Language : English
Default : Yes
Forced : No

Audio #1
ID : 2
Format : AC-3
Format/Info : Audio Coding 3
Mode extension : CM (complete main)
Format settings, Endianness : Big
Codec ID : A_AC3
Duration : 2 h 9 min
Bit rate mode : Constant
Bit rate : 384 kb/s
Channel(s) : 6 channels
Channel positions : Front: L C R, Side: L R, LFE
Sampling rate : 48.0 kHz
Frame rate : 31.250 FPS (1536 spf)
Compression mode : Lossy
Stream size : 355 MiB (4%)
Title : Дубляж - iTunes
Language : Russian
Default : Yes
Forced : No

Audio #2
ID : 3
Format : AC-3
Format/Info : Audio Coding 3
Mode extension : CM (complete main)
Format settings, Endianness : Big
Codec ID : A_AC3
Duration : 2 h 9 min
Bit rate mode : Constant
Bit rate : 640 kb/s
Channel(s) : 6 channels
Channel positions : Front: L C R, Side: L R, LFE
Sampling rate : 48.0 kHz
Frame rate : 31.250 FPS (1536 spf)
Compression mode : Lossy
Stream size : 592 MiB (6%)
Title : Original
Language : English
Default : No
Forced : No

Menu
00:00:00.000 : :1
00:04:36.276 : :2
00:08:06.526 : :3
00:11:18.259 : :4
00:15:21.543 : :5
00:18:57.384 : :6
00:25:05.921 : :7
00:31:41.566 : :8
00:36:08.708 : :9
00:42:32.257 : :10
00:47:01.318 : :11
00:54:44.989 : :12
01:00:43.556 : :13
01:07:40.931 : :14
01:14:38.221 : :15
01:19:43.694 : :16
01:22:02.751 : :17
01:28:53.368 : :18
01:34:01.301 : :19
01:38:10.175 : :20
01:45:23.692 : :21
01:49:13.962 : :22
01:55:54.197 : :23
01:58:49.497 : :24
Некоторое время на роль Белль всерьёз рассматривали актрису Аманду Сайфред.
Юэн МакГрегор однажды сказал, что во время съёмок очень переживал, потому что ему было трудно говорить с французским акцентом. Актёр даже консультировался на эту тему со своей женой-француженкой. МакГрегор позже признался, что акцент ему так и не дался.
Эмма Томпсон, исполнительница роли миссис Поттс, и Хэтти Морахэн, которая играет Агату, сыграли Элинор Дэшвуд — в фильме Энга Ли «Разум и чувства» (1995) и телесериале BBC (2008) по одноимённому роману Джейн Остин (1775-1817).
Эмма Уотсон, исполнившая роль Белль, Люк Эванс, который сыграл Гастона, и Эмма Томпсон, которая исполнила миссис Поттс, родились в один день 15 апреля. Эмма Уотсон родилась в 1990 году, Люк Эванс — в 1979-м, а Эмма Томпсон — в 1959-м.
Третий фильм компании Disney в актёрской карьере Кевина Клайна, который играет Мориса. Он озвучил капитана Феба в анимационном фильме Горбун из Нотр Дама (Гари Труздейл, Кирк Уайз, 1996) и его сиквеле «Горбун из Нотр Дама 2» (Брэдли Рэймонд, 2002). В 1991 году Гари Труздейл и Кирк Уайз сняли анимационный фильм «Красавица и Чудовище». А ещё это третий фильм компании Disney, в котором играет Клайн, и действие которого разворачивается во Франции.
Более 8700 свечей (или 2,65 километра воска) было использовано в декорациях за время производства картины.
Пол бального зала в замке Чудовища, который занимает 1115 квадратных метров, сделан из искусственного мрамора, а его дизайн основан на узоре потолка в Бенедиктинском монастыре, расположенном в аббатстве Браунау-ин-Рор в Германии. Десять стеклянных люстр, освещающих бальный зал, каждая размером 2х4 метра, были сконструированы на основе реальных люстр из французского королевского дворца в Версале, покрыты глазурью, имитирующей иней, и задрапированы тканью.
Примерно 1500 роз были выращены или приобретены за время съёмок в исследовательских целях или для использования в декорациях.
На создание заколдованного леса из живых деревьев и кустарников, который окружает замок Чудовища, покрытого льдом озера и 20 000 сосулек, которые украсили съемочную площадку фильма, ушло более 15 недель.
Более 12000 часов работы было потрачено на создание желтого бального платья Белль. Кроме того, на это платье художники по костюмам израсходовали около 55 метров невесомой органзы, 914 метров нити и 2160 кристаллов Swarovski.
Фруфру, собачку Мадам де Гардероб (Одра МакДональд) и маэстро Каденцы (Стэнли Туччи), играет пёс по кличке Гизмо, который на самом деле является питомцем одного из старейших и самых знаменитых приютов для животных в Великобритании.
Некоторые строки из песен «Гастон» и «Чудовище и Белль», написанные Ховардом Эшманом для анимационного фильма, но не исполненные в 1991 году, впервые прозвучат в песнях, записанных для кинопостановки.
Фонарики на террасе, лестница в замке Чудовища и розовая колоннада на территории замка — это дань уважения авангардистской версии сказки «Красавица и Чудовище», снятой в 1946 году французским режиссером Жаном Кокто, фильм которого стал источником вдохновения для Билла Кондона.


Скриншотыскриншот   скриншот   скриншот   скриншот   скриншот   скриншот   скриншот  pb.wtf



Скачать Красавица и чудовище в 3Д через торрент http://i92.fastpic.ru/big/2017/0616/f2/039feb0afaa03c305cd1a1c08a6036f2.png Скачать фильм Красавица и чудовище в 3Д через торрент бесплантно в хорошем качестве Описание: Обозлённая Волшебница превратила принца Адама в отвратительное чудовище за то, что тот был злым, самовлюблённым и грубым. Чтобы ... 10 10 7
Info! Золотая раздача, скачанное не засчитывается.
Торрент: Зарегистрирован [2017-06-16 16:01] · скачан: 396 раз
Статус: √ проверено
Размер: 9.31 GB
Как cкачать? Как скачать Красавица и чудовище в 3Д через торрент | UTorrent

28-11-2019 20:33  

Отключить всю рекламу на сайте

    Дорогой пользователь! Огромная просьба, поблагодарите релизера, оцените раздачу и оставьте свои комментарий, если Вы скачали Красавица и чудовище в 3Д через торрент бесплатно! Внесите свою лепту в развитие PiratBit!
    Комментировать посты могут только пользователи прошедшие не сложную регистрацию
    Показать сообщения:    

    Красавица и чудовище в 3Д через торрент
    Скачать бесплатно Красавица и чудовище в 3Д
    Красавица и чудовище в 3Д скачать торрент
    Красавица и чудовище в 3Д смотреть онлайн
    Cкачать фильм Красавица и чудовище в 3Д бесплатно
    Красавица и чудовище в 3Д скачать торрент в хорошем качестве
    Красавица и чудовище в 3Д смотреть онлайн бесплатно в хорошем качестве


    Вы не можете начинать темы
    Вы не можете отвечать на сообщения
    Вы не можете редактировать свои сообщения
    Вы не можете удалять свои сообщения
    Вы не можете голосовать в опросах
    Вы не можете прикреплять файлы к сообщениям
    Вы можете скачивать файлы