Ссылка на приватное зеркало нашего сайта всего за 1$. Внимание количество ограничено!!!

2 сезон

iTunes

1 сезон

1

iTunes

iTunes

iTunes

1 сезон

RePack

30

ИГРА 18+

pack

ВАЖНО

!!Акция!!

Alien_RageХит недели

RePack

MK11
pack

Забери бонус

RePack

jed

!!Акция!!

Alien_Rage

RePack

fifa19

RePack

Assassins Creed: Odyssey

RePack

NEED FOR SPEED™ PAYBACK

4 сезон

9 сезон

Бесстыжие 9 сезон

Все сериалы

все сериалы на PB.wtf

RePack

FAR CRY 5
  

Прикончи их всех / Kill'em All (Питер Малота) [2017, боевик, BDRip 720p] MVO [Лицензия] pb.wtf

Прикончи их всех через торрент pb.wtf

Размер: 3.91 GB | Добавлен: 3 года 4 мес. назад | Торрент скачан:169 раз
Скачать  

16-06-2017 18:22 Прикончи их всех Скачать торрент  

Прикончи их всех / Kill'em All

Год выпуска: 2017
Страна: США
Жанр: боевик
Продолжительность: 01:35:50
Перевод: Профессиональный многоголосый [Лицензия]
Субтитры: русские (Full), английские (Full), английские (SDH)
Режиссер: Питер Малота
В ролях:

Жан-Клод Ван Дамм (Philip), Петер Стормаре (CIA Agent Holman), Отем Ризер (Suzanne), Мария Кончита Алонсо (FBI agent Sanders), Дэниэл Бернхард (Radovan), Кристофер Ван Варенберг (Dusan), Джеймс П. Беннетт (Henchman), Ганс Марреро (Body Gaurd #1), Пол Сэмпсон (Klaus), Peter Organ (Ivan), Кристофер Хески (Henchmen), Джон Л. Армихо (Mexican Bodyguard)
Описание:
В обычную американскую больницу поступает необычный пациент, находящийся при смерти после массовой перестрелки. Бойня возобновляется, когда по его следу приходит группа вооружённых налётчиков. Оставшейся в живых свидетельнице - молодой медсестре Сюзанне - придётся иметь дело с агентами ФБР и участниками международного заговора.
Рейтинг:

MPAA: R - Лицам до 17 лет обязательно присутствие взрослого
Качество: BDRip 720p
Формат: MKV
Видео: AVC, 1280x534 (2.40:1), 4555 kbps, 23,976 fps, 0,278 bpp
Аудио №1: русский / AC3 / 5.1 / 48 kHz / 640 kbps / |MVO|
Аудио №2: английский / AC3 / 5.1 / 48 kHz / 640 kbps /
Навигация по главам: есть
Релиз от:
General
Unique ID : 173605788817993877502072388610723124187 (0x829B423B7F43BCE98C1CE1D1A52793DB)
Complete name : E:\Kill.Em.All.2017.Lic.BDRip.720p.ExKinoRay.mkv
Format : Matroska
Format version : Version 4 / Version 2
File size : 3.91 GiB
Duration : 1 h 35 min
Overall bit rate : 5 838 kb/s
Encoded date : UTC 2017-06-16 15:44:28
Writing application : mkvmerge v12.0.0 ('Trust / Lust') 64bit
Writing library : libebml v1.3.4 + libmatroska v1.4.5

Video
ID : 1
Format : AVC
Format/Info : Advanced Video Codec
Format profile : High@L4.1
Format settings, CABAC : Yes
Format settings, ReFrames : 12 frames
Codec ID : V_MPEG4/ISO/AVC
Duration : 1 h 35 min
Bit rate : 4 555 kb/s
Width : 1 280 pixels
Height : 534 pixels
Display aspect ratio : 2.40:1
Frame rate mode : Constant
Frame rate : 23.976 (23976/1000) FPS
Color space : YUV
Chroma subsampling : 4:2:0
Bit depth : 8 bits
Scan type : Progressive
Bits/(Pixel*Frame) : 0.278
Stream size : 2.97 GiB (76%)
Writing library : x264 core 146 r2538 121396c
Encoding settings : cabac=1 / ref=12 / deblock=1:-3:-3 / analyse=0x3:0x133 / me=umh / subme=11 / psy=1 / psy_rd=1.05:0.05 / mixed_ref=1 / me_range=64 / chroma_me=1 / trellis=2 / 8x8dct=1 / cqm=0 / deadzone=21,11 / fast_pskip=0 / chroma_qp_offset=-3 / threads=6 / lookahead_threads=1 / sliced_threads=0 / nr=0 / decimate=0 / interlaced=0 / bluray_compat=0 / constrained_intra=0 / bframes=8 / b_pyramid=2 / b_adapt=2 / b_bias=0 / direct=3 / weightb=1 / open_gop=0 / weightp=2 / keyint=240 / keyint_min=23 / scenecut=40 / intra_refresh=0 / rc_lookahead=50 / rc=2pass / mbtree=0 / bitrate=4555 / ratetol=1.0 / qcomp=0.60 / qpmin=0 / qpmax=69 / qpstep=4 / cplxblur=20.0 / qblur=0.5 / vbv_maxrate=50000 / vbv_bufsize=62500 / nal_hrd=none / filler=0 / ip_ratio=1.40 / pb_ratio=1.30 / aq=1:0.80
Language : English
Default : Yes
Forced : No

Audio #1
ID : 2
Format : AC-3
Format/Info : Audio Coding 3
Mode extension : CM (complete main)
Format settings, Endianness : Big
Codec ID : A_AC3
Duration : 1 h 35 min
Bit rate mode : Constant
Bit rate : 640 kb/s
Channel(s) : 6 channels
Channel positions : Front: L C R, Side: L R, LFE
Sampling rate : 48.0 kHz
Frame rate : 31.250 FPS (1536 spf)
Compression mode : Lossy
Stream size : 439 MiB (11%)
Title : MVO [License]
Language : Russian
Default : Yes
Forced : No

Audio #2
ID : 3
Format : AC-3
Format/Info : Audio Coding 3
Mode extension : CM (complete main)
Format settings, Endianness : Big
Codec ID : A_AC3
Duration : 1 h 35 min
Bit rate mode : Constant
Bit rate : 640 kb/s
Channel(s) : 6 channels
Channel positions : Front: L C R, Side: L R, LFE
Sampling rate : 48.0 kHz
Frame rate : 31.250 FPS (1536 spf)
Compression mode : Lossy
Stream size : 439 MiB (11%)
Title : Original
Language : English
Default : No
Forced : No

Text #1
ID : 4
Format : UTF-8
Codec ID : S_TEXT/UTF8
Codec ID/Info : UTF-8 Plain Text
Title : Full
Language : Russian
Default : No
Forced : No

Text #2
ID : 5
Format : UTF-8
Codec ID : S_TEXT/UTF8
Codec ID/Info : UTF-8 Plain Text
Title : Full
Language : English
Default : No
Forced : No

Text #3
ID : 6
Format : UTF-8
Codec ID : S_TEXT/UTF8
Codec ID/Info : UTF-8 Plain Text
Title : SDH
Language : English
Default : No
Forced : No

Menu
00:00:00.000 : en:Chapter 1
00:10:02.602 : en:Chapter 2
00:15:03.653 : en:Chapter 3
00:20:25.599 : en:Chapter 4
00:23:32.661 : en:Chapter 5
00:30:05.679 : en:Chapter 6
00:38:21.716 : en:Chapter 7
00:43:43.454 : en:Chapter 8
00:48:37.873 : en:Chapter 9
00:53:32.000 : en:Chapter 10
00:58:52.279 : en:Chapter 11
01:03:58.334 : en:Chapter 12
01:08:31.065 : en:Chapter 13
01:12:44.068 : en:Chapter 14
01:21:30.177 : en:Chapter 15
01:28:14.122 : en:Chapter 16
pb.wtf



Скачать Прикончи их всех через торрент http://i6.imageban.ru/out/2017/06/16/2b95d92a88f552292dbb0277bf0472de.jpg Скачать фильм Прикончи их всех через торрент бесплантно в хорошем качестве Описание: В обычную американскую больницу поступает необычный пациент, находящийся при смерти после массовой перестрелки. Бойня ... 8.5 10 6
Торрент: Зарегистрирован [2017-06-16 18:22] · скачан: 169 раз
Статус: √ проверено
Размер: 3.91 GB
Как cкачать? Как скачать Прикончи их всех через торрент | qTorrent

28-11-2019 20:33  

Отключить всю рекламу на сайте

    Дорогой пользователь! Огромная просьба, поблагодарите релизера, оцените раздачу и оставьте свои комментарий, если Вы скачали Прикончи их всех через торрент бесплатно! Внесите свою лепту в развитие PiratBit!
    Комментировать посты могут только пользователи прошедшие не сложную регистрацию
    Показать сообщения:    

    Прикончи их всех через торрент
    Скачать бесплатно Прикончи их всех
    Прикончи их всех скачать торрент
    Прикончи их всех смотреть онлайн
    Cкачать фильм Прикончи их всех бесплатно
    Прикончи их всех скачать торрент в хорошем качестве
    Прикончи их всех смотреть онлайн бесплатно в хорошем качестве


    Вы не можете начинать темы
    Вы не можете отвечать на сообщения
    Вы не можете редактировать свои сообщения
    Вы не можете удалять свои сообщения
    Вы не можете голосовать в опросах
    Вы не можете прикреплять файлы к сообщениям
    Вы можете скачивать файлы